(Techno, Tech House) [CDM] Elektrochemie LK - Schall - 2000, FLAC (tracks+.cue) lossless

Ответить на тему
Статистика раздачи
Размер:  261 MB   |    Зарегистрирован:  9 дней   |    Скачан:  0 раз

Полного источника не было: Никогда

 
   
 
 
Автор Сообщение

star21 ®

Пол: Женский

Стаж: 3 года

Сообщений: 552916

Откуда: Екатеринбург

Создавать темы 08-Ноя-2018 22:20

[Цитировать]

Elektrochemie LK / SchallЖанр: Techno, Tech House
Страна-производитель диска: Germany
Год издания диска: 2000
Издатель (лейбл): Fuel Records, Leaded
Номер по каталогу: 8573-83979-2, 8573-83979-2
Аудио кодек: FLAC (*.flac)
Тип рипа: tracks+.cue
Битрейт аудио: lossless
Продолжительность: 36:31
Источник (релизер): свой рип
Наличие сканов в содержимом раздачи: да
Треклист:01 Schall (Thomas Schumacher Remix Radio Edit) [03:00]
02 Schall (Orginal Radio Edit) [02:54]
03 Schall (Thomas Schumacher Remix) [08:01]
04 Schall (Orginal Mix) [09:20]
05 Schall (Thomas P. Heckmann Remix) [06:09]
06 Schall (Pascal F.E.O.S. Remix) [07:05]

Лог создания рипа

Exact Audio Copy V1.3 from 2. September 2016EAC extraction logfile from 8. November 2018, 8:32Elektrochemie LK / SchallUsed drive  : ASUS    SDRW-08D2S-U   Adapter: 9  ID: 0Read mode               : SecureUtilize accurate stream : YesDefeat audio cache      : YesMake use of C2 pointers : NoRead offset correction                      : 6Overread into Lead-In and Lead-Out          : NoFill up missing offset samples with silence : YesDelete leading and trailing silent blocks   : NoNull samples used in CRC calculations       : YesUsed interface                              : Installed external ASPI interfaceGap handling                                : Appended to previous trackUsed output format              : User Defined EncoderSelected bitrate                : 128 kBit/sQuality                         : HighAdd ID3 tag                     : NoCommand line compressor         : D:\flac-1.3.2-win\win64\flac.exeAdditional command line options : -8 -V -T "ARTIST=%artist%" -T "TITLE=%title%" -T "ALBUM=%albumtitle%" -T "DATE=%year%" -T "TRACKNUMBER=%tracknr%" -T "GENRE=%genre%" -T "COMMENT=ripped by Andy aka yetiisyou" %source%TOC of the extracted CD     Track |   Start  |  Length  | Start sector | End sector    ---------------------------------------------------------        1  |  0:00.00 |  3:00.10 |         0    |    13509        2  |  3:00.10 |  2:54.60 |     13510    |    26619        3  |  5:54.70 |  8:01.08 |     26620    |    62702        4  | 13:56.03 |  9:20.20 |     62703    |   104722        5  | 23:16.23 |  6:09.13 |    104723    |   132410        6  | 29:25.36 |  7:05.48 |    132411    |   164333Track  1     Filename E:\!Ripped by Andy aka yetiisyou\Elektrochemie LK - Schall [8573-83979-2] [2000]\01. Elektrochemie LK - Schall (Thomas Schumacher remix radio edit).wav     Pre-gap length  0:00:02.00     Peak level 93.6 %     Extraction speed 2.5 X     Track quality 100.0 %     Test CRC 9318DE65     Copy CRC 9318DE65     Accurately ripped (confidence 17)  [0EF07C36]  (AR v2)     Copy OKTrack  2     Filename E:\!Ripped by Andy aka yetiisyou\Elektrochemie LK - Schall [8573-83979-2] [2000]\02. Elektrochemie LK - Schall (original radio edit).wav     Pre-gap length  0:00:03.00     Peak level 93.6 %     Extraction speed 2.7 X     Track quality 100.0 %     Test CRC 8FADBF36     Copy CRC 8FADBF36     Accurately ripped (confidence 17)  [DA18408F]  (AR v2)     Copy OKTrack  3     Filename E:\!Ripped by Andy aka yetiisyou\Elektrochemie LK - Schall [8573-83979-2] [2000]\03. Elektrochemie LK - Schall (Thomas Schumacher remix).wav     Pre-gap length  0:00:03.00     Peak level 98.8 %     Extraction speed 3.4 X     Track quality 100.0 %     Test CRC ACDD91C3     Copy CRC ACDD91C3     Accurately ripped (confidence 17)  [AC25AFCF]  (AR v2)     Copy OKTrack  4     Filename E:\!Ripped by Andy aka yetiisyou\Elektrochemie LK - Schall [8573-83979-2] [2000]\04. Elektrochemie LK - Schall (original mix).wav     Pre-gap length  0:00:03.00     Peak level 98.8 %     Extraction speed 4.0 X     Track quality 100.0 %     Test CRC 84BA4BBE     Copy CRC 84BA4BBE     Accurately ripped (confidence 17)  [C2259ED2]  (AR v2)     Copy OKTrack  5     Filename E:\!Ripped by Andy aka yetiisyou\Elektrochemie LK - Schall [8573-83979-2] [2000]\05. Elektrochemie LK - Schall (Thomas P. Heckmann remix).wav     Pre-gap length  0:00:03.00     Peak level 100.0 %     Extraction speed 3.8 X     Track quality 99.9 %     Test CRC C188AD5E     Copy CRC C188AD5E     Accurately ripped (confidence 17)  [110E8125]  (AR v2)     Copy OKTrack  6     Filename E:\!Ripped by Andy aka yetiisyou\Elektrochemie LK - Schall [8573-83979-2] [2000]\06. Elektrochemie LK - Schall (Pascal F.E.O.S. remix).wav     Pre-gap length  0:00:03.00     Peak level 98.8 %     Extraction speed 4.1 X     Track quality 99.9 %     Test CRC 94083FF1     Copy CRC 94083FF1     Accurately ripped (confidence 16)  [CC67796E]  (AR v2)     Copy OKAll tracks accurately rippedNo errors occurredEnd of status report---- CUETools DB Plugin V2.1.6[CTDB TOCID: 8uv.tmpmxjOlDChhcqXK5W4qGKU-] foundSubmit result: 8uv.tmpmxjOlDChhcqXK5W4qGKU- has been confirmedTrack | CTDB Status  1   | (37/40) Accurately ripped  2   | (39/40) Accurately ripped  3   | (39/40) Accurately ripped  4   | (39/40) Accurately ripped  5   | (38/40) Accurately ripped  6   | (39/40) Accurately ripped==== Log checksum 4D5207DF2B373A8AA4368877488705EA556AF9D1CAEEFA7A9A4E9A9092B397A5 ====

Содержание индексной карты (.CUE)

REM DATE 2000REM DISCID 58088F06REM COMMENT "ExactAudioCopy v1.3"CATALOG 0008573839792PERFORMER "Elektrochemie LK"TITLE "Schall"REM COMPOSER ""FILE "01. Elektrochemie LK - Schall (Thomas Schumacher remix radio edit).wav" WAVE  TRACK 01 AUDIO    TITLE "Schall (Thomas Schumacher remix radio edit)"    PERFORMER "Elektrochemie LK"    REM COMPOSER ""    ISRC DEA610061224    INDEX 01 00:00:00  TRACK 02 AUDIO    TITLE "Schall (original radio edit)"    PERFORMER "Elektrochemie LK"    REM COMPOSER ""    ISRC DEA610061225    INDEX 00 02:57:10FILE "02. Elektrochemie LK - Schall (original radio edit).wav" WAVE    INDEX 01 00:00:00  TRACK 03 AUDIO    TITLE "Schall (Thomas Schumacher remix)"    PERFORMER "Elektrochemie LK"    REM COMPOSER ""    ISRC DEA610061220    INDEX 00 02:51:60FILE "03. Elektrochemie LK - Schall (Thomas Schumacher remix).wav" WAVE    INDEX 01 00:00:00  TRACK 04 AUDIO    TITLE "Schall (original mix)"    PERFORMER "Elektrochemie LK"    REM COMPOSER ""    ISRC DEA610061221    INDEX 00 07:58:08FILE "04. Elektrochemie LK - Schall (original mix).wav" WAVE    INDEX 01 00:00:00  TRACK 05 AUDIO    TITLE "Schall (Thomas P. Heckmann remix)"    PERFORMER "Elektrochemie LK"    REM COMPOSER ""    ISRC DEA610061226    INDEX 00 09:17:20FILE "05. Elektrochemie LK - Schall (Thomas P. Heckmann remix).wav" WAVE    INDEX 01 00:00:00  TRACK 06 AUDIO    TITLE "Schall (Pascal F.E.O.S. remix)"    PERFORMER "Elektrochemie LK"    REM COMPOSER ""    ISRC DEA610061223    INDEX 00 06:06:13FILE "06. Elektrochemie LK - Schall (Pascal F.E.O.S. remix).wav" WAVE    INDEX 01 00:00:00

Для скачки контента: [Установить программу-клиент] и кликнуть по - СкачатьБезопасность: клиент проверен АВ Касперского

[asmlocator.ru].t585241.torrent 
Торрент: Зарегистрирован [ 2018-11-08 22:20 ] · C207B536D8FF96FEA6EACCE077BDF0F61AA4D370

Скачать .torrent

Скачать

11 KB

Статус: проверено
Скачан: 0 раз
Размер: 261 MB
terms.php
[Профиль] [ЛС]
Показать сообщения:    
Ответить на тему

Текущее время: 18-Ноя 02:43

Часовой пояс: UTC ± 0



Вы не можете начинать темы
Вы не можете отвечать на сообщения
Вы не можете редактировать свои сообщения
Вы не можете удалять свои сообщения
Вы не можете голосовать в опросах
Вы не можете прикреплять файлы к сообщениям
Вы можете скачивать файлы