(NWOBHM) [CD] Cobra - Warriors Of The Dead - 2018, FLAC (image+.cue), lossless

Ответить на тему
Статистика раздачи
Размер:  265 MB   |    Зарегистрирован:  9 дней   |    Скачан:  0 раз
Сидов:  1  [  0 KB/s  ]   Подробная статистика пиров
 
   
 
 
Автор Сообщение

star21 ®

Пол: Женский

Стаж: 3 года

Сообщений: 552916

Откуда: Екатеринбург

Создавать темы 08-Ноя-2018 22:20

[Цитировать]

Cobra / Warriors Of The Dead Жанр: NWOBHM
Носитель: CD
Страна-производитель диска (релиза): Greece
Год издания: 2018
Издатель (лейбл): Cult Metal Classic Records
Номер по каталогу: CULTMETALCBRWCD
Страна исполнителя (группы): UK
Аудиокодек: FLAC (*.flac)
Тип рипа: image+.cue
Битрейт аудио: lossless
Продолжительность: 35:22
Источник (релизер): Heavymetalthunder
Наличие сканов в содержимом раздачи: нет
Треклист:
1. Warriors of the Dead 03:06
2. Cobra 03:08
3. Dying Man's Song 04:34
4. On My Knees 02:58
5. Wildest Dreams 03:15
6. We Rock You 03:43
7. Stand with Me 03:57
8. China Syndrome 03:45
9. Cobra (Demo) 03:41
10. Warriors of the Dead (Demo) 03:15

Лог создания рипа

Exact Audio Copy V1.3 from 2. September 2016EAC extraction logfile from 8. November 2018, 19:48cobra / warriors of the deadUsed drive  : PLDS    DVD-RW DA8AESH   Adapter: 1  ID: 0Read mode               : SecureUtilize accurate stream : YesDefeat audio cache      : YesMake use of C2 pointers : NoRead offset correction                      : 6Overread into Lead-In and Lead-Out          : NoFill up missing offset samples with silence : YesDelete leading and trailing silent blocks   : NoNull samples used in CRC calculations       : YesUsed interface                              : Native Win32 interface for Win NT & 2000Used output format              : User Defined EncoderSelected bitrate                : 768 kBit/sQuality                         : HighAdd ID3 tag                     : NoCommand line compressor         : C:\Program Files (x86)\Exact Audio Copy\FLAC.EXEAdditional command line options : -6 -V -T "ARTIST=%artist%" -T "TITLE=%title%" -T "ALBUM=%albumtitle%" -T "DATE=%year%" -T "TRACKNUMBER=%tracknr%" -T "GENRE=%genre%" -T "COMMENT=%comment%" -T "BAND=%albuminterpret%" -T "ALBUMARTIST=%albuminterpret%" -T "COMPOSER=%composer%" %haslyrics%--tag-from-file=LYRICS="%lyricsfile%"%haslyrics% -T "DISCNUMBER=%cdnumber%" -T "TOTALDISCS=%totalcds%" -T "TOTALTRACKS=%numtracks%" %hascover%--picture="%coverfile%"%hascover% %source% -o %dest%TOC of the extracted CD     Track |   Start  |  Length  | Start sector | End sector    ---------------------------------------------------------        1  |  0:00.00 |  3:07.16 |         0    |    14040        2  |  3:07.16 |  3:10.36 |     14041    |    28326        3  |  6:17.52 |  4:36.73 |     28327    |    49099        4  | 10:54.50 |  3:01.67 |     49100    |    62741        5  | 13:56.42 |  3:17.60 |     62742    |    77576        6  | 17:14.27 |  3:45.55 |     77577    |    94506        7  | 21:00.07 |  4:00.18 |     94507    |   112524        8  | 25:00.25 |  3:46.45 |    112525    |   129519        9  | 28:46.70 |  3:41.32 |    129520    |   146126       10  | 32:28.27 |  3:14.46 |    146127    |   160722Range status and errorsSelected range     Filename C:\Users\xabi\Desktop\cobra - warriors of the dead.wav     Peak level 98.9 %     Extraction speed 3.2 X     Range quality 100.0 %     Test CRC EBC4FB42     Copy CRC EBC4FB42     Copy OKNo errors occurredAccurateRip summaryTrack  1  not present in databaseTrack  2  not present in databaseTrack  3  not present in databaseTrack  4  not present in databaseTrack  5  not present in databaseTrack  6  not present in databaseTrack  7  not present in databaseTrack  8  not present in databaseTrack  9  not present in databaseTrack 10  not present in databaseNone of the tracks are present in the AccurateRip databaseEnd of status report---- CUETools DB Plugin V2.1.6[CTDB TOCID: YoGcPyokeUgSqvsm3A5elXQqDpc-] foundSubmit result: YoGcPyokeUgSqvsm3A5elXQqDpc- has been confirmedTrack | CTDB Status  1   | (3/3) Accurately ripped  2   | (3/3) Accurately ripped  3   | (3/3) Accurately ripped  4   | (3/3) Accurately ripped  5   | (3/3) Accurately ripped  6   | (3/3) Accurately ripped  7   | (3/3) Accurately ripped  8   | (3/3) Accurately ripped  9   | (3/3) Accurately ripped 10   | (3/3) Accurately ripped==== Log checksum A731D41DF0E1CAA76C91BF480C293F14AD10945CCECA3DA75C62C8FC315B51E1 ====------------------------------------------------------------Exact Audio Copy V1.3 from 2. September 2016EAC extraction logfile from 8. November 2018, 19:48cobra / warriors of the deadUsed drive  : PLDS    DVD-RW DA8AESH   Adapter: 1  ID: 0Read mode               : SecureUtilize accurate stream : YesDefeat audio cache      : YesMake use of C2 pointers : NoRead offset correction                      : 6Overread into Lead-In and Lead-Out          : NoFill up missing offset samples with silence : YesDelete leading and trailing silent blocks   : NoNull samples used in CRC calculations       : YesUsed interface                              : Native Win32 interface for Win NT & 2000Used output format              : User Defined EncoderSelected bitrate                : 768 kBit/sQuality                         : HighAdd ID3 tag                     : NoCommand line compressor         : C:\Program Files (x86)\Exact Audio Copy\FLAC.EXEAdditional command line options : -6 -V -T "ARTIST=%artist%" -T "TITLE=%title%" -T "ALBUM=%albumtitle%" -T "DATE=%year%" -T "TRACKNUMBER=%tracknr%" -T "GENRE=%genre%" -T "COMMENT=%comment%" -T "BAND=%albuminterpret%" -T "ALBUMARTIST=%albuminterpret%" -T "COMPOSER=%composer%" %haslyrics%--tag-from-file=LYRICS="%lyricsfile%"%haslyrics% -T "DISCNUMBER=%cdnumber%" -T "TOTALDISCS=%totalcds%" -T "TOTALTRACKS=%numtracks%" %hascover%--picture="%coverfile%"%hascover% %source% -o %dest%TOC of the extracted CD     Track |   Start  |  Length  | Start sector | End sector    ---------------------------------------------------------        1  |  0:00.00 |  3:07.16 |         0    |    14040        2  |  3:07.16 |  3:10.36 |     14041    |    28326        3  |  6:17.52 |  4:36.73 |     28327    |    49099        4  | 10:54.50 |  3:01.67 |     49100    |    62741        5  | 13:56.42 |  3:17.60 |     62742    |    77576        6  | 17:14.27 |  3:45.55 |     77577    |    94506        7  | 21:00.07 |  4:00.18 |     94507    |   112524        8  | 25:00.25 |  3:46.45 |    112525    |   129519        9  | 28:46.70 |  3:41.32 |    129520    |   146126       10  | 32:28.27 |  3:14.46 |    146127    |   160722Range status and errorsSelected range     Filename C:\Users\xabi\Desktop\cobra - warriors of the dead.wav     Peak level 98.9 %     Extraction speed 3.2 X     Range quality 100.0 %     Test CRC EBC4FB42     Copy CRC EBC4FB42     Copy OKNo errors occurredAccurateRip summaryTrack  1  not present in databaseTrack  2  not present in databaseTrack  3  not present in databaseTrack  4  not present in databaseTrack  5  not present in databaseTrack  6  not present in databaseTrack  7  not present in databaseTrack  8  not present in databaseTrack  9  not present in databaseTrack 10  not present in databaseNone of the tracks are present in the AccurateRip databaseEnd of status report---- CUETools DB Plugin V2.1.6[CTDB TOCID: YoGcPyokeUgSqvsm3A5elXQqDpc-] foundSubmit result: YoGcPyokeUgSqvsm3A5elXQqDpc- has been confirmedTrack | CTDB Status  1   | (3/3) Accurately ripped  2   | (3/3) Accurately ripped  3   | (3/3) Accurately ripped  4   | (3/3) Accurately ripped  5   | (3/3) Accurately ripped  6   | (3/3) Accurately ripped  7   | (3/3) Accurately ripped  8   | (3/3) Accurately ripped  9   | (3/3) Accurately ripped 10   | (3/3) Accurately ripped==== Log checksum A731D41DF0E1CAA76C91BF480C293F14AD10945CCECA3DA75C62C8FC315B51E1 ====

Для скачки контента: [Установить программу-клиент] и кликнуть по - СкачатьБезопасность: клиент проверен АВ Касперского

[asmlocator.ru].t585228.torrent 
Торрент: Зарегистрирован [ 2018-11-08 22:20 ] · 65D447B29ECC9F8CBDF544AA8F7C883DAB8F6D32

Скачать .torrent

Скачать

11 KB

Статус: проверено
Скачан: 0 раз
Размер: 265 MB
terms.php
[Профиль] [ЛС]
Показать сообщения:    
Ответить на тему

Текущее время: 18-Ноя 02:41

Часовой пояс: UTC ± 0



Вы не можете начинать темы
Вы не можете отвечать на сообщения
Вы не можете редактировать свои сообщения
Вы не можете удалять свои сообщения
Вы не можете голосовать в опросах
Вы не можете прикреплять файлы к сообщениям
Вы можете скачивать файлы