(Pop, Folk, Chanson, Schlager) [LP] [24/96] Roger Whittaker – Whittaker Live - 1977?, FLAC (tracks)

Ответить на тему
Статистика раздачи
Размер:  520 MB   |    Зарегистрирован:  9 дней   |    Скачан:  0 раз

Полного источника не было: Никогда

 
   
 
 
Автор Сообщение

star21 ®

Пол: Женский

Стаж: 3 года

Сообщений: 552916

Откуда: Екатеринбург

Создавать темы 08-Ноя-2018 22:20

[Цитировать]

Roger Whittaker – Whittaker Live Жанр: Pop, Folk, Chanson, Schlager
Носитель: LP
Год выпуска: 1977?
Лейбл: AVES – 0069.904
Страна-производитель: Germany
Аудио кодек: FLAC
Тип рипа: tracks
Формат записи: 24/96
Формат раздачи: 24/96
Продолжительность: 00:54:48Источник оцифровки: alexpika
Код класса состояния винила: Ex
Устройство воспроизведения: Profi HiFi Sound
Головка звукоснимателя: Audio Technica
Предварительный усилитель: Marantz
АЦП: Realtek HD
Программа-оцифровщик: WaveEditor
Обработка: разделение на треки и чистка

Треклист

A01. Image To My Mind (2:06)
A02. Dirty Old Town (3:36)
A03. Mexican Whistler (2:23)
A04. New African Whistler (4:32)
A05. Chengalip (3:25)
A06. Image To My Mind (1:47)
A07. That's Life (3:36)
A08. What Love Is (2:37)
A09. River Lady (2:58)
A10. Indian Lady (4:06)B1. Image To My Mind (1:13)
B2. A Day In The Life Of A Lucky Man (4:19)
B3. This Moment (2:59)
B4. Ride A Country Road (3:19)
B5. Image To My Mind (1:21)
B6. Morning Has Broken (3:17)
B7. Why (3:05)
B8. I Don't Belive In If Anymore (2:15)
B9. The Last Farwell (3:39)

DR Log

foobar2000 1.1.10 / Dynamic Range Meter 1.1.1
log date: 2018-11-08 21:20:03--------------------------------------------------------------------------------
Analyzed: Roger Whittaker / Whittaker Live
--------------------------------------------------------------------------------DR Peak RMS Duration Track
--------------------------------------------------------------------------------
DR16 -7.01 dB -26.32 dB 1:42 ?-Image To My Mind
DR16 -3.92 dB -22.90 dB 3:20 ?-Dirty Old Town
DR12 -5.95 dB -23.07 dB 5:23 ?-Mexican Whistler
DR13 -3.65 dB -23.49 dB 1:18 ?-New African Whistler
DR13 -6.25 dB -22.23 dB 3:35 ?-Chengalip
DR16 -7.34 dB -27.46 dB 1:44 ?-Image To My Mind
DR16 -5.33 dB -23.96 dB 3:06 ?-That's Life
DR17 -6.50 dB -26.33 dB 2:36 ?-What Love Is
DR14 -4.08 dB -20.71 dB 2:59 ?-River Lady
DR13 -3.52 dB -21.90 dB 3:55 ?-Indian Lady
DR15 -5.22 dB -25.08 dB 1:55 ?-Image To My Mind
DR18 -7.17 dB -27.89 dB 3:41 ?-A Day In The Life Of A Lucky Man
DR16 -4.56 dB -23.32 dB 2:51 ?-This Moment
DR14 -3.63 dB -21.72 dB 3:21 ?-Ride A Country Road
DR15 -6.19 dB -25.90 dB 1:14 ?-Image To My Mind
DR15 -7.06 dB -25.40 dB 3:44 ?-Morning Has Broken
DR15 -6.59 dB -25.43 dB 2:27 ?-Why
DR15 -7.18 dB -25.54 dB 2:37 ?-I Don't Belive In If Anymore
DR15 -6.01 dB -24.27 dB 3:20 ?-The Last Farwell
--------------------------------------------------------------------------------Number of tracks: 19
Official DR value: DR15Samplerate: 44100 Hz
Channels: 2
Bits per sample: 24
Bitrate: 1249 kbps
Codec: FLAC
================================================================================

Credits & Notes

Actual title taken from sleeve.
Ttile on label, "Roger Whittaker Live - Die Platte zur Tournee"..
Barcode and Other Identifiers
Label Code: LC 4465
Rights Society (on label): GEMA

Спектр. АЧХ. Уровень записи

Раздаю до первых 5-ти скачавших, на раздачи не возвращаюсь...

Для скачки контента: [Установить программу-клиент] и кликнуть по - СкачатьБезопасность: клиент проверен АВ Касперского

[asmlocator.ru].t585223.torrent 
Торрент: Зарегистрирован [ 2018-11-08 22:20 ] · E2D7EF4226AAA3D40DE654A6BB227B5392F25DF3

Скачать .torrent

Скачать

12 KB

Статус: проверено
Скачан: 0 раз
Размер: 520 MB
terms.php
[Профиль] [ЛС]
Показать сообщения:    
Ответить на тему

Текущее время: 18-Ноя 02:43

Часовой пояс: UTC ± 0



Вы не можете начинать темы
Вы не можете отвечать на сообщения
Вы не можете редактировать свои сообщения
Вы не можете удалять свои сообщения
Вы не можете голосовать в опросах
Вы не можете прикреплять файлы к сообщениям
Вы можете скачивать файлы