(Score) История любви / Love Story (by Francis Lai) - 2018 (1970), FLAC (image+.cue), lossless

Ответить на тему
Статистика раздачи
Размер:  232 MB   |    Зарегистрирован:  9 дней   |    Скачан:  0 раз
Сидов:  4  [  0 KB/s  ]   Подробная статистика пиров
 
   
 
 
Автор Сообщение

star21 ®

Пол: Женский

Стаж: 3 года

Сообщений: 552916

Откуда: Екатеринбург

Создавать темы 08-Ноя-2018 22:20

[Цитировать]

История любви / Love Story
Composed by Francis Lai
Limited Edition Жанр: Score | Дата выпуска: 23 февраля 2018
Издатель (лейбл): Quartet Records | Номер по каталогу: QR313
Аудиокодек: FLAC | Тип рипа: image+.cue | Битрейт аудио: lossless
Общая продолжительность: 1:04:21
Источник: Рип оригинального диска из личной коллекции ★★ The Original Album ★★
01. Theme from Love Story [3:25]
02. Snow Frolic [3:02]
03. Mozart Sonata in F Major (Allegro) [2:22]
04. I Love You Phil [2:09]
05. The Christmas Trees [2:52]
06. Search for Jenny [3:08]
07. Bozo Barrett [2:48]
08. Skating in Central Park [3:08]
09. The Long Walk Home [1:34]
10. Bach Concerto No. 3 in D Major (Allegro) [2:39]
11. Theme from Love Story (Finale) [4:01]
12. Snow Frolic (Single Version) [2:41] ★★ The Film Score ★★
13. Theme from Love Story [1:25]
14. I Love You Phil [1:07]
15. Mozart Sonata in F Major (Allegro) [0:52]
16. Lovemaking [0:57]
17. Snow Frolic [1:45]
18. Bach Concerto No. 3 in D Major (Allegro) [1:10]
19. Bozo Barrett [1:52]
20. Search for Jenny [3:08]
21. The Christmas Trees [2:25]
22. The Long Walk Home Part 1 [1:27]
23. The Long Walk Home Part 2 [1:09]
24. Skating in Central Park [3:46]
25. The Long Walk Home Part 3 [0:52]
26. Finale [3:52] ★★ Bonus Tracks ★★
27. Snow Frolic (Alternate Mix) [2:41]
28. Theme from Love Story (Guitar Version) [1:46]

Лог создания рипа

Exact Audio Copy V1.3 from 2. September 2016EAC extraction logfile from 11. April 2018, 23:17Francis Lai / Love StoryUsed drive  : TSSTcorpCDDVDW SN-S082N   Adapter: 1  ID: 1Read mode               : SecureUtilize accurate stream : YesDefeat audio cache      : YesMake use of C2 pointers : NoRead offset correction                      : 6Overread into Lead-In and Lead-Out          : NoFill up missing offset samples with silence : YesDelete leading and trailing silent blocks   : NoNull samples used in CRC calculations       : YesUsed interface                              : Native Win32 interface for Win NT & 2000Used output format              : User Defined EncoderSelected bitrate                : 896 kBit/sQuality                         : HighAdd ID3 tag                     : NoCommand line compressor         : C:\Program Files\Exact Audio Copy\Flac\flac.exeAdditional command line options : -V -8 %source%TOC of the extracted CD     Track |   Start  |  Length  | Start sector | End sector    ---------------------------------------------------------        1  |  0:00.00 |  3:25.43 |         0    |    15417        2  |  3:25.43 |  3:02.39 |     15418    |    29106        3  |  6:28.07 |  2:22.58 |     29107    |    39814        4  |  8:50.65 |  2:09.10 |     39815    |    49499        5  | 11:00.00 |  2:52.69 |     49500    |    62468        6  | 13:52.69 |  3:08.70 |     62469    |    76638        7  | 17:01.64 |  2:48.64 |     76639    |    89302        8  | 19:50.53 |  3:08.18 |     89303    |   103420        9  | 22:58.71 |  1:34.67 |    103421    |   110537       10  | 24:33.63 |  2:39.66 |    110538    |   122528       11  | 27:13.54 |  4:01.51 |    122529    |   140654       12  | 31:15.30 |  2:41.34 |    140655    |   152763       13  | 33:56.64 |  1:25.44 |    152764    |   159182       14  | 35:22.33 |  1:07.28 |    159183    |   164235       15  | 36:29.61 |  0:52.63 |    164236    |   168198       16  | 37:22.49 |  0:57.70 |    168199    |   172543       17  | 38:20.44 |  1:45.65 |    172544    |   180483       18  | 40:06.34 |  1:10.40 |    180484    |   185773       19  | 41:16.74 |  1:52.58 |    185774    |   194231       20  | 43:09.57 |  3:08.69 |    194232    |   208400       21  | 46:18.51 |  2:25.37 |    208401    |   219312       22  | 48:44.13 |  1:27.19 |    219313    |   225856       23  | 50:11.32 |  1:09.74 |    225857    |   231105       24  | 51:21.31 |  3:46.71 |    231106    |   248126       25  | 55:08.27 |  0:52.26 |    248127    |   252052       26  | 56:00.53 |  3:52.62 |    252053    |   269514       27  | 59:53.40 |  2:41.46 |    269515    |   281635       28  | 62:35.11 |  1:46.14 |    281636    |   289599Range status and errorsSelected range     Filename D:\Francis Lai - Love Story (QR313).wav     Peak level 96.4 %     Extraction speed 1.2 X     Range quality 100.0 %     Test CRC 926620A9     Copy CRC 926620A9     Copy OKNo errors occurredAccurateRip summaryTrack  1  accurately ripped (confidence 3)  [24A5590D]  (AR v2)Track  2  accurately ripped (confidence 3)  [25EE99B1]  (AR v2)Track  3  accurately ripped (confidence 3)  [0F5BE20A]  (AR v2)Track  4  accurately ripped (confidence 3)  [7FAD7794]  (AR v2)Track  5  accurately ripped (confidence 3)  [C76BA31D]  (AR v2)Track  6  accurately ripped (confidence 3)  [0A828421]  (AR v2)Track  7  accurately ripped (confidence 3)  [AA0B96E6]  (AR v2)Track  8  accurately ripped (confidence 3)  [4C5952DC]  (AR v2)Track  9  accurately ripped (confidence 3)  [35653CED]  (AR v2)Track 10  accurately ripped (confidence 3)  [07681025]  (AR v2)Track 11  accurately ripped (confidence 3)  [7A0048F1]  (AR v2)Track 12  accurately ripped (confidence 3)  [FA0150D6]  (AR v2)Track 13  accurately ripped (confidence 3)  [45C1C150]  (AR v2)Track 14  accurately ripped (confidence 3)  [CE15687B]  (AR v2)Track 15  accurately ripped (confidence 3)  [1475986F]  (AR v2)Track 16  accurately ripped (confidence 3)  [D3A49AB4]  (AR v2)Track 17  accurately ripped (confidence 3)  [338F2E96]  (AR v2)Track 18  accurately ripped (confidence 3)  [903C2178]  (AR v2)Track 19  accurately ripped (confidence 3)  [7FA9CA7F]  (AR v2)Track 20  accurately ripped (confidence 3)  [4193DDA4]  (AR v2)Track 21  accurately ripped (confidence 3)  [41F88AF2]  (AR v2)Track 22  accurately ripped (confidence 3)  [5735961D]  (AR v2)Track 23  accurately ripped (confidence 3)  [E4749E16]  (AR v2)Track 24  accurately ripped (confidence 3)  [48B81D9D]  (AR v2)Track 25  accurately ripped (confidence 3)  [5E040A30]  (AR v2)Track 26  accurately ripped (confidence 3)  [82960FF0]  (AR v2)Track 27  accurately ripped (confidence 3)  [4D6714B5]  (AR v2)Track 28  accurately ripped (confidence 3)  [8EE97A8D]  (AR v2)All tracks accurately rippedEnd of status report---- CUETools DB Plugin V2.1.6[CTDB TOCID: nHYEQPUqtCHzo2m3G9yNg6S6onY-] foundSubmit result: nHYEQPUqtCHzo2m3G9yNg6S6onY- has been confirmedTrack | CTDB Status  1   | (6/6) Accurately ripped  2   | (6/6) Accurately ripped  3   | (6/6) Accurately ripped  4   | (6/6) Accurately ripped  5   | (6/6) Accurately ripped  6   | (6/6) Accurately ripped  7   | (6/6) Accurately ripped  8   | (6/6) Accurately ripped  9   | (6/6) Accurately ripped 10   | (6/6) Accurately ripped 11   | (6/6) Accurately ripped 12   | (6/6) Accurately ripped 13   | (6/6) Accurately ripped 14   | (6/6) Accurately ripped 15   | (6/6) Accurately ripped 16   | (6/6) Accurately ripped 17   | (6/6) Accurately ripped 18   | (6/6) Accurately ripped 19   | (6/6) Accurately ripped 20   | (6/6) Accurately ripped 21   | (6/6) Accurately ripped 22   | (6/6) Accurately ripped 23   | (6/6) Accurately ripped 24   | (6/6) Accurately ripped 25   | (6/6) Accurately ripped 26   | (6/6) Accurately ripped 27   | (6/6) Accurately ripped 28   | (6/6) Accurately ripped==== Log checksum 6CE8296EFEED435400ADEA6E9ECB4F439FC786896E6F3E9EE48E385BE48671C5 ====

Содержание индексной карты (.CUE)

REM GENRE SoundtrackREM DATE 1970REM DISCID 790F151CREM COMMENT "ExactAudioCopy v1.3"PERFORMER "Francis Lai"TITLE "Love Story"REM COMPOSER ""FILE "Francis Lai - Love Story (QR313).flac" WAVE  TRACK 01 AUDIO    TITLE "Theme from Love Story"    PERFORMER "Francis Lai"    REM COMPOSER ""    INDEX 01 00:00:00  TRACK 02 AUDIO    TITLE "Snow Frolic"    PERFORMER "Francis Lai"    REM COMPOSER ""    INDEX 00 03:23:43    INDEX 01 03:25:43  TRACK 03 AUDIO    TITLE "Mozart Sonata in F Major (Allegro)"    PERFORMER "Francis Lai"    REM COMPOSER ""    INDEX 00 06:26:07    INDEX 01 06:28:07  TRACK 04 AUDIO    TITLE "I Love You Phil"    PERFORMER "Francis Lai"    REM COMPOSER ""    INDEX 00 08:48:65    INDEX 01 08:50:65  TRACK 05 AUDIO    TITLE "The Christmas Trees"    PERFORMER "Francis Lai"    REM COMPOSER ""    INDEX 00 10:58:00    INDEX 01 11:00:00  TRACK 06 AUDIO    TITLE "Search for Jenny"    PERFORMER "Francis Lai"    REM COMPOSER ""    INDEX 00 13:50:69    INDEX 01 13:52:69  TRACK 07 AUDIO    TITLE "Bozo Barrett"    PERFORMER "Francis Lai"    REM COMPOSER ""    INDEX 00 16:59:64    INDEX 01 17:01:64  TRACK 08 AUDIO    TITLE "Skating in Central Park"    PERFORMER "Francis Lai"    REM COMPOSER ""    INDEX 00 19:48:53    INDEX 01 19:50:53  TRACK 09 AUDIO    TITLE "The Long Walk Home"    PERFORMER "Francis Lai"    REM COMPOSER ""    INDEX 00 22:56:71    INDEX 01 22:58:71  TRACK 10 AUDIO    TITLE "Bach Concerto No. 3 in D Major (Allegro)"    PERFORMER "Francis Lai"    REM COMPOSER ""    INDEX 00 24:31:63    INDEX 01 24:33:63  TRACK 11 AUDIO    TITLE "Theme from Love Story (Finale)"    PERFORMER "Francis Lai"    REM COMPOSER ""    INDEX 00 27:11:54    INDEX 01 27:13:54  TRACK 12 AUDIO    TITLE "Snow Frolic (Single Version)"    PERFORMER "Francis Lai"    REM COMPOSER ""    INDEX 00 31:09:30    INDEX 01 31:15:30  TRACK 13 AUDIO    TITLE "Theme from Love Story"    PERFORMER "Francis Lai"    REM COMPOSER ""    INDEX 00 33:50:64    INDEX 01 33:56:64  TRACK 14 AUDIO    TITLE "I Love You Phil"    PERFORMER "Francis Lai"    REM COMPOSER ""    INDEX 00 35:20:33    INDEX 01 35:22:33  TRACK 15 AUDIO    TITLE "Mozart Sonata in F Major (Allegro)"    PERFORMER "Francis Lai"    REM COMPOSER ""    INDEX 00 36:27:61    INDEX 01 36:29:61  TRACK 16 AUDIO    TITLE "Lovemaking"    PERFORMER "Francis Lai"    REM COMPOSER ""    INDEX 00 37:20:49    INDEX 01 37:22:49  TRACK 17 AUDIO    TITLE "Snow Frolic"    PERFORMER "Francis Lai"    REM COMPOSER ""    INDEX 00 38:18:44    INDEX 01 38:20:44  TRACK 18 AUDIO    TITLE "Bach Concerto No. 3 in D Major (Allegro)"    PERFORMER "Francis Lai"    REM COMPOSER ""    INDEX 00 40:04:34    INDEX 01 40:06:34  TRACK 19 AUDIO    TITLE "Bozo Barrett"    PERFORMER "Francis Lai"    REM COMPOSER ""    INDEX 00 41:14:74    INDEX 01 41:16:74  TRACK 20 AUDIO    TITLE "Search for Jenny"    PERFORMER "Francis Lai"    REM COMPOSER ""    INDEX 00 43:07:57    INDEX 01 43:09:57  TRACK 21 AUDIO    TITLE "The Christmas Trees"    PERFORMER "Francis Lai"    REM COMPOSER ""    INDEX 00 46:16:51    INDEX 01 46:18:51  TRACK 22 AUDIO    TITLE "The Long Walk Home Part 1"    PERFORMER "Francis Lai"    REM COMPOSER ""    INDEX 00 48:42:13    INDEX 01 48:44:13  TRACK 23 AUDIO    TITLE "The Long Walk Home Part 2"    PERFORMER "Francis Lai"    REM COMPOSER ""    INDEX 00 50:09:32    INDEX 01 50:11:32  TRACK 24 AUDIO    TITLE "Skating in Central Park"    PERFORMER "Francis Lai"    REM COMPOSER ""    INDEX 00 51:19:31    INDEX 01 51:21:31  TRACK 25 AUDIO    TITLE "The Long Walk Home Part 3"    PERFORMER "Francis Lai"    REM COMPOSER ""    INDEX 00 55:06:27    INDEX 01 55:08:27  TRACK 26 AUDIO    TITLE "Finale"    PERFORMER "Francis Lai"    REM COMPOSER ""    INDEX 00 55:58:53    INDEX 01 56:00:53  TRACK 27 AUDIO    TITLE "Snow Frolic (Alternate Mix)"    PERFORMER "Francis Lai"    REM COMPOSER ""    INDEX 00 59:49:40    INDEX 01 59:53:40  TRACK 28 AUDIO    TITLE "Theme from Love Story (Guitar Version)"    PERFORMER "Francis Lai"    REM COMPOSER ""    INDEX 00 62:31:11    INDEX 01 62:35:11
Посвящается светлой памяти Великого Маэстро Френсиса Лея (26.04.1932-07.11.2018)

Для скачки контента: [Установить программу-клиент] и кликнуть по - СкачатьБезопасность: клиент проверен АВ Касперского

[asmlocator.ru].t585219.torrent 
Торрент: Зарегистрирован [ 2018-11-08 22:20 ] · 0E29283A0CAE205E540CE15649A05B5CB44805E5

Скачать .torrent

Скачать

37 KB

Статус: проверено
Скачан: 0 раз
Размер: 232 MB
terms.php
[Профиль] [ЛС]
Показать сообщения:    
Ответить на тему

Текущее время: 18-Ноя 02:44

Часовой пояс: UTC ± 0



Вы не можете начинать темы
Вы не можете отвечать на сообщения
Вы не можете редактировать свои сообщения
Вы не можете удалять свои сообщения
Вы не можете голосовать в опросах
Вы не можете прикреплять файлы к сообщениям
Вы можете скачивать файлы