(Classical) Coste, Legnani, Giuliani, Mertz, Regondi - Fantasias on Operas by Bellini, Rossini, Donizetti, Verdi - Roch Modrzejewski - 2013, FLAC (image+.cue) lossless

Ответить на тему
Статистика раздачи
Размер:  263 MB   |    Зарегистрирован:  9 дней   |    Скачан:  0 раз

Полного источника не было: Никогда

 
   
 
 
Автор Сообщение

star21 ®

Пол: Женский

Стаж: 3 года

Сообщений: 552916

Откуда: Екатеринбург

Создавать темы 08-Ноя-2018 22:20

[Цитировать]

Fantasias on Operas by Bellini, Rossini, Donizetti, Verdi - Roch Modrzejewski Жанр: Classical
Год издания диска: 2013
Издатель (лейбл): Brilliant Classics
Номер по каталогу: 94446
Дата записи: 2012
Аудиокодек: FLAC
Тип рипа: image+.cue
Битрейт аудио: lossless
Продолжительность: 66:10
Источник: собственный рип
Наличие сканов в содержимом раздачи: даТреклист:Napoléon Coste (1805-1877)
[1] Fantasy on two themes from Bellini’s 'Norma', Op.16
[2] Introduction and Variations on a theme by Bellini ('Il pirata')Luigi Legnani (1790-1877)
[3] Elvira’s Cavatina from Verdi’s 'Ernani'Mauro Giuliani (1781-1829)
[4] Variations on the favourite Cavatina from Rossini’s 'Otello', Op.101Jan Nepomuk de Bobrowicz (1805-1881)
[5] Variations and Polonaise on a duet from Bellini’s 'I Capuleti e i Montecchi'Johann Kaspar Mertz (1806-1856)
[6] Opern-Revue, Op.8 - Fantasia No.11 Marino Faliero (after Donizetti)Giulio Regondi (1822-1872)
[7] Variations on an air from Bellini’s 'I Capuleti e i Montecchi'Исполнители:
Roch Modrzejewski guitar

Лог создания рипа

Exact Audio Copy V1.3 from 2. September 2016EAC extraction logfile from 3. January 2018, 21:44Roch Modrzejewski / Fantasias on OperasUsed drive  : PLDS    DVD-RW DU8A6SH   Adapter: 1  ID: 0Read mode               : SecureUtilize accurate stream : YesDefeat audio cache      : YesMake use of C2 pointers : NoRead offset correction                      : 6Overread into Lead-In and Lead-Out          : NoFill up missing offset samples with silence : YesDelete leading and trailing silent blocks   : NoNull samples used in CRC calculations       : YesUsed interface                              : Native Win32 interface for Win NT & 2000Used output format              : User Defined EncoderSelected bitrate                : 128 kBit/sQuality                         : HighAdd ID3 tag                     : NoCommand line compressor         : C:\Program Files (x86)\Exact Audio Copy\Flac\flac.exeAdditional command line options : -V -8 -T "Date=%year%" -T "Genre=%genre%" %source%TOC of the extracted CD     Track |   Start  |  Length  | Start sector | End sector    ---------------------------------------------------------        1  |  0:00.00 |  6:39.46 |         0    |    29970        2  |  6:39.46 | 12:52.04 |     29971    |    87874        3  | 19:31.50 |  6:06.02 |     87875    |   115326        4  | 25:37.52 |  6:31.12 |    115327    |   144663        5  | 32:08.64 | 11:33.07 |    144664    |   196645        6  | 43:41.71 | 11:27.31 |    196646    |   248201        7  | 55:09.27 | 11:00.65 |    248202    |   297766Range status and errorsSelected range     Filename C:\temp\Fantasias on Operas - Modrzejewski\Fantasias on Operas.wav     Peak level 96.3 %     Extraction speed 3.9 X     Range quality 100.0 %     Test CRC 87065C0A     Copy CRC 87065C0A     Copy OKNo errors occurredAccurateRip summaryTrack  1  cannot be verified as accurate (confidence 2)  [683A47BB], AccurateRip returned [BA62155E]  (AR v2)Track  2  cannot be verified as accurate (confidence 2)  [965C9569], AccurateRip returned [652D074C]  (AR v2)Track  3  cannot be verified as accurate (confidence 2)  [5BDFA83E], AccurateRip returned [DA8AEB86]  (AR v2)Track  4  cannot be verified as accurate (confidence 2)  [EBDB7080], AccurateRip returned [B53E272B]  (AR v2)Track  5  cannot be verified as accurate (confidence 2)  [56EE5CF4], AccurateRip returned [75E6F231]  (AR v2)Track  6  cannot be verified as accurate (confidence 2)  [F456B980], AccurateRip returned [40941D33]  (AR v2)Track  7  cannot be verified as accurate (confidence 2)  [1AD935AB], AccurateRip returned [BE35DDA2]  (AR v2)No tracks could be verified as accurateYou may have a different pressing from the one(s) in the databaseEnd of status report==== Log checksum 2B5ED6FF6B44633244643B26745479A7B4661A401F65A51EC09E4894ACB2EE01 ====

Для скачки контента: [Установить программу-клиент] и кликнуть по - СкачатьБезопасность: клиент проверен АВ Касперского

[asmlocator.ru].t585211.torrent 
Торрент: Зарегистрирован [ 2018-11-08 22:20 ] · 3CD0FB0EC68FA0B99F69227EC9799DDB34841BDF

Скачать .torrent

Скачать

22 KB

Статус: проверено
Скачан: 0 раз
Размер: 263 MB
terms.php
[Профиль] [ЛС]
Показать сообщения:    
Ответить на тему

Текущее время: 18-Ноя 02:43

Часовой пояс: UTC ± 0



Вы не можете начинать темы
Вы не можете отвечать на сообщения
Вы не можете редактировать свои сообщения
Вы не можете удалять свои сообщения
Вы не можете голосовать в опросах
Вы не можете прикреплять файлы к сообщениям
Вы можете скачивать файлы