Кислота (Александр Горчилин) [2018, драма, WEB-DLRip]

Reply to topic
DL-List and Torrent activity
Size:  1.46 GB   |    Registered:  5 months 10 days   |    Completed:  1 time

Seeder not seen: 55 minutes

 
   
 
 
Author Message

star21 ®

Gender: Female

Longevity: 3 years 5 months

Posts: 552394

Location: Екатеринбург

Post 08-Nov-2018 22:20

[Quote]

Кислота Жанр: драма
Год выпуска: 2018
Продолжительность: 01:33:36В ролях: Филипп Авдеев, Александр Кузнецов, Арина Шевцова, Савва Савельев, Александра Ребенок, Роза Хайруллина, Дмитрий Куличков, Елена Морозова, Алексей Агранович, Софья Синицына
Описание:
Саша и Петя живут безбашенной жизнью музыкантов современной техно-Москвы: громкие вечеринки, взлеты и падения, колесо нестабильных отношений с окружающими и собой. Они — поколение двадцатилетних, которые часто слышали слова «любовь», «семья» и «возможности», но хорошо усвоили лишь чувство разъедающего изнутри одиночества. Но вдруг в их жизни происходит событие, которое заставляет обоих честно взглянуть на себя.
SampleКачество видео: WEB-DLRip
Формат видео: AVIВидео: 720x304 (2.37:1), 25 fps, XviD build 73 ~1834 kbps avg, 0.34 bit/pixel
Аудио: 48 kHz, AC3 Dolby Digital, 3/2 (L,C,R,l,r) + LFE ch, ~384 kbps

MediaInfo

General
Complete name : D:\Кислота 2018 WEB-DLRip.avi
Format : AVI
Format/Info : Audio Video Interleave
File size : 1.46 GiB
Duration : 1 h 33 min
Overall bit rate : 2 229 kb/s
Writing application : VirtualDubMod 1.5.10.3 | www.virtualdub-fr.org || (build 2550/release)
Writing library : VirtualDubMod build 2550/releaseVideo
ID : 0
Format : MPEG-4 Visual
Format profile : Advanced Simple@L5
Format settings : BVOP1
Format settings, BVOP : 1
Format settings, QPel : No
Format settings, GMC : No warppoints
Format settings, Matrix : Default (MPEG)
Codec ID : XVID
Codec ID/Hint : XviD
Duration : 1 h 33 min
Bit rate : 1 835 kb/s
Width : 720 pixels
Height : 304 pixels
Display aspect ratio : 2.35:1
Frame rate : 25.000 FPS
Color space : YUV
Chroma subsampling : 4:2:0
Bit depth : 8 bits
Scan type : Progressive
Compression mode : Lossy
Bits/(Pixel*Frame) : 0.335
Stream size : 1.20 GiB (82%)
Writing library : XviD 73Audio
ID : 1
Format : AC-3
Format/Info : Audio Coding 3
Codec ID : 2000
Duration : 1 h 33 min
Bit rate mode : Constant
Bit rate : 384 kb/s
Channel(s) : 6 channels
Channel positions : Front: L C R, Side: L R, LFE
Sampling rate : 48.0 kHz
Frame rate : 31.250 FPS (1536 SPF)
Bit depth : 16 bits
Compression mode : Lossy
Stream size : 257 MiB (17%)
Alignment : Split accross interleaves
Interleave, duration : 40 ms (1.00 video frame)
Interleave, preload duratio : 500 ms
Service kind : Complete Main

Скриншоты




To download the content you need:
1. Download and install torrent client [for Windows] or for mobile system
2. Click on [Download]
Attention.
If the test YOU are NOT a ROBOT - does not work, then You are using an outdated browser.
Install the current browser and click on [Download]
Security: torrent client is allowed by Kaspersky.

[asmlocator.ru].t585205.torrent 
Torrent: Registered [ 2018-11-08 22:20 ] · 0ADB3DD40D3E5DABD3A8FAC7993CA2AEABC23A7B

Download .torrent

Download

15 KB

Status: checked
Completed: 1 times
Size: 1.46 GB
terms.php
[Profile] [PM]
Display posts:    
Reply to topic

Current time is: 19-Apr 05:20

All times are UTC ± 0



You cannot post new topics in this forum
You cannot reply to topics in this forum
You cannot edit your posts in this forum
You cannot delete your posts in this forum
You cannot vote in polls in this forum
You cannot attach files in this forum
You can download files in this forum