Пришельцы в доме / Luis and His Friends from Outer Space (Кристоф Лауэнштайн / Christoph Lauenstein) [2018, Германия, Люксембург, Дания, мультфильм, фантастика, комедия, приключения, WEB-DLRip] [Локализованный видеоряд] Dub (iTunes)

Reply to topic
DL-List and Torrent activity
Size:  1.46 GB   |    Registered:  5 months 13 days   |    Completed:  1 time

Seeder not seen: 1 hour 1 minute

 
   
 
 
Author Message

star21 ®

Gender: Female

Longevity: 3 years 5 months

Posts: 552392

Location: Екатеринбург

Post 08-Nov-2018 22:20

[Quote]

Пришельцы в доме / Luis and His Friends from Outer Space Страна: Германия, Люксембург, Дания
Жанр: мультфильм, фантастика, комедия, приключения
Год выпуска: 2018
Продолжительность: 01:25:34Перевод: Профессиональный (дублированный) | iTunes
Субтитры: нет
Оригинальная аудиодорожка: нетРежиссёр: Кристоф Лауэнштайн / Christoph Lauenstein, Вольфганг Лауэнштайн / Wolfgang Lauenstein, Шон МакКормак / Sean McCormackВ ролях: Каллум Малони, Дермот Магеннис, Йен Коппингер, Пол Тайлак, Люси Кэролан, Эйн Дэйли, Эйлин Митен, Саймон Тоул, Данна Дэвис, Сьюзи ПауэрОписание: У 12-летнего Луиса нет друзей, а у его отца постоянно не хватает на него времени. Тот страстно увлечен уфологией и даже не догадывается, что те, кого он так жаждет найти, находятся прямо у него перед носом. Луис становится единственным свидетелем аварийной посадки трех чудаковатых инопланетян рядом с их домом. Троица пришельцев быстро находит общий язык с мальчиком. Они ведут себя точь-в-точь как озорные подростки, и обладают к тому же совершенно удивительной способностью — перевоплощаться в любое живое существо. Луис еще никогда так не веселился, как рядом с ними. Но он быстро понимает, что если взрослые узнают о его тайне, ничем хорошим это не закончится. Поэтому он решает помочь им починить тарелку и улететь вместе с ними…Качество: WEB-DLRip
Формат: AVIВидео: 704x384 (1.83:1), 24.000 fps, XviD build 73 ~2041 kbps avg, 0.31 bit/pixel
Аудио: 48 kHz, AC3 Dolby Digital, 3/2 (L,C,R,l,r) + LFE ch, ~384 kbps
Сэмпл

MediaInfo


Код:
Формат : AVI
Формат/Информация : Audio Video Interleave
Размер файла : 1,46 Гбайт
Продолжительность : 1 ч. 25 м.
Общий поток : 2435 Кбит/сек
Программа кодирования : VirtualDubMod 1.5.10.3 | www.virtualdub-fr.org || (build 2550/release)
Библиотека кодирования : VirtualDubMod build 2550/releaseВидео
Идентификатор : 0
Формат : MPEG-4 Visual
Профиль формата : Advanced Simple@L5
Настройки формата : BVOP1 / Custom Matrix
Параметр BVOP формата : 1
Параметр QPel формата : Нет
Параметр GMC формата : Без точки перехода
Параметр матрицы формата : Выборочная
Идентификатор кодека : XVID
Идентификатор кодека/Подсказка : XviD
Продолжительность : 1 ч. 25 м.
Битрейт : 2041 Кбит/сек
Ширина : 704 пикселя
Высота : 384 пикселя
Соотношение сторон : 1,85:1
Частота кадров : 24,000 кадра/сек
Цветовое пространство : YUV
Субдискретизация насыщенности : 4:2:0
Битовая глубина : 8 бит
Тип развёртки : Прогрессивная
Метод сжатия : С потерями
Бит/(Пиксели*Кадры) : 0.315
Размер потока : 1,22 Гбайт (84%)
Библиотека кодирования : XviD 73Аудио
Идентификатор : 1
Формат : AC-3
Формат/Информация : Audio Coding 3
Коммерческое название : Dolby Digital
Идентификатор кодека : 2000
Продолжительность : 1 ч. 25 м.
Вид битрейта : Постоянный
Битрейт : 384 Кбит/сек
Каналы : 6 каналов
Channel layout : L R C LFE Ls Rs
Частота : 48,0 КГц
Частота кадров : 31,250 кадров/сек (1536 SPF)
Битовая глубина : 16 бит
Метод сжатия : С потерями
Размер потока : 235 Мбайт (16%)
Выравнивание : Разделение по промежуткам
Продолжительность промежутка : 42 мс. (1,00 видеокадр)
Время предзагрузки промежутка : 500 мс.
ServiceKind/String : Complete Main

Скриншоты



To download the content you need:
1. Download and install torrent client [for Windows] or for mobile system
2. Click on [Download]
Attention.
If the test YOU are NOT a ROBOT - does not work, then You are using an outdated browser.
Install the current browser and click on [Download]
Security: torrent client is allowed by Kaspersky.

[asmlocator.ru].t585202.torrent 
Torrent: Registered [ 2018-11-08 22:20 ] · D10258E5A25B299B1A8CE57F409F78323AC19B5A

Download .torrent

Download

15 KB

Status: checked
Completed: 1 times
Size: 1.46 GB
terms.php
[Profile] [PM]
Display posts:    
Reply to topic

Current time is: 22-Apr 05:06

All times are UTC ± 0



You cannot post new topics in this forum
You cannot reply to topics in this forum
You cannot edit your posts in this forum
You cannot delete your posts in this forum
You cannot vote in polls in this forum
You cannot attach files in this forum
You can download files in this forum