Кислота (Александр Горчилин) [2018, Россия, драма, WEB-DL 1080p] Original Rus

Reply to topic
DL-List and Torrent activity
Size:  3.68 GB   |    Registered:  5 months 13 days   |    Completed:  0 times

Seeder not seen: Never

 
   
 
 
Author Message

star21 ®

Gender: Female

Longevity: 3 years 5 months

Posts: 552392

Location: Екатеринбург

Post 08-Nov-2018 22:20

[Quote]

Кислота Страна: Россия
Студия: Кинокомпания «Слон», TRUEMEN Pictures
Жанр: драма
Год выпуска: 2018
Продолжительность: 01:33:36Перевод: Не требуется
Субтитры: нет
Оригинальная аудиодорожка: русскийРежиссёр: Александр ГорчилинВ ролях: Филипп Авдеев, Александр Кузнецов, Арина Шевцова, Савва Савельев, Александра Ребенок, Роза Хайруллина, Дмитрий Куличков, Елена Морозова, Алексей Агранович, Софья Синицына
Описание:
Саша и Петя живут безбашенной жизнью музыкантов современной техно-Москвы: громкие вечеринки, взлеты и падения, колесо нестабильных отношений с окружающими и собой. Они — поколение двадцатилетних, которые часто слышали слова «любовь», «семья» и «возможности», но хорошо усвоили лишь чувство разъедающего изнутри одиночества. Но вдруг в их жизни происходит событие, которое заставляет обоих честно взглянуть на себя.
SampleТип релиза: WEB-DL 1080p
Контейнер: MKVВидео: MPEG4 AVC Video, H264, 2.40:1, 1920x804, 25 fps, 5238 kbps
Аудио: Russian (AC3, 6 ch, 384 kbps, 16 bits, 48.0 KHz) - оригинал

MediaInfo

General
Unique ID : 66059773396707445212133446605909696336 (0x31B2A64A3F2AAA8C0F4C2AF183AA9F50)
Complete name : D:\KISLOTA (2018) WEB-DL 1080p).mkv
Format : Matroska
Format version : Version 4 / Version 2
File size : 3.68 GiB
Duration : 1 h 33 min
Overall bit rate : 5 623 kb/s
Movie name : Кислота (2018)
Encoded date : UTC 2018-11-08 19:11:11
Writing application : mkvmerge v27.0.0 ('Metropolis') 64-bit
Writing library : libebml v1.3.6 + libmatroska v1.4.9Video
ID : 1
Format : AVC
Format/Info : Advanced Video Codec
Format profile : High@L4.1
Format settings : CABAC / 4 Ref Frames
Format settings, CABAC : Yes
Format settings, ReFrames : 4 frames
Codec ID : V_MPEG4/ISO/AVC
Duration : 1 h 33 min
Bit rate : 5 238 kb/s
Width : 1 920 pixels
Height : 804 pixels
Display aspect ratio : 2.40:1
Frame rate mode : Constant
Frame rate : 25.000 FPS
Color space : YUV
Chroma subsampling : 4:2:0
Bit depth : 8 bits
Scan type : Progressive
Bits/(Pixel*Frame) : 0.136
Stream size : 3.42 GiB (93%)
Title : KISLOTA (2018) WEB-DL 1080p
Language : Russian
Default : Yes
Forced : NoAudio
ID : 2
Format : AC-3
Format/Info : Audio Coding 3
Codec ID : A_AC3
Duration : 1 h 33 min
Bit rate mode : Constant
Bit rate : 384 kb/s
Channel(s) : 6 channels
Channel positions : Front: L C R, Side: L R, LFE
Sampling rate : 48.0 kHz
Frame rate : 31.250 FPS (1536 SPF)
Bit depth : 16 bits
Compression mode : Lossy
Stream size : 257 MiB (7%)
Title : iTunes | KISLOTA (2018) WEB-DL 1080p
Language : Russian
Service kind : Complete Main
Default : Yes
Forced : No

Скриншоты



To download the content you need:
1. Download and install torrent client [for Windows] or for mobile system
2. Click on [Download]
Attention.
If the test YOU are NOT a ROBOT - does not work, then You are using an outdated browser.
Install the current browser and click on [Download]
Security: torrent client is allowed by Kaspersky.

[asmlocator.ru].t585200.torrent 
Torrent: Registered [ 2018-11-08 22:20 ] · 218A392A239355DA94873420321E8DB641029556

Download .torrent

Download

19 KB

Status: checked
Completed: 0 times
Size: 3.68 GB
terms.php
[Profile] [PM]
Display posts:    
Reply to topic

Current time is: 22-Apr 05:08

All times are UTC ± 0



You cannot post new topics in this forum
You cannot reply to topics in this forum
You cannot edit your posts in this forum
You cannot delete your posts in this forum
You cannot vote in polls in this forum
You cannot attach files in this forum
You can download files in this forum