Кто я? / Who Am I / Ngo si seoi / Wo shi shei (Бенни Чан / Benny Chan, Джеки Чан / Jackie Chan) [1998, Гонконг, боевик, комедия, приключения, WEB-DLRip] DVO (ТВ6) + Original Eng

Ответить на тему
Статистика раздачи
Размер:  2,15 GB   |    Зарегистрирован:  9 дней   |    Скачан:  0 раз

Полного источника не было: Никогда

 
   
 
 
Автор Сообщение

star21 ®

Пол: Женский

Стаж: 3 года

Сообщений: 552916

Откуда: Екатеринбург

Создавать темы 08-Ноя-2018 22:20

[Цитировать]

Кто я? / Who Am I / Ngo si seoi / Wo shi shei Год выпуска: 1998
Страна: Гонконг
Жанр: боевик, комедия, приключенияПродолжительность: 02:00:27
Перевод: Профессиональный (двухголосый закадровый) - ТВ6
Субтитры: японские hardsub (неотключаемые)
Оригинальная аудиодорожка: английскийРежиссер: Бенни Чан / Benny Chan, Джеки Чан / Jackie ChanВ ролях: Джеки Чан / Who Am I, Мишель Ферре / Christine Stark, Мираи Ямамото / Yuki, Рон Смержак / Morgan, Эд Нельсон / General Sherman, Том Помперт / CIA Chairman, Глори Саймон / CIA Secretary, Фред ван Дитмарш / Airforce, Фриц Кромменхёк / Navy, Дик Риенстра / ArmyМировая премьера: 17 января 1998Описание: Работающая под прикрытием ЦРУ группа спецназа направляется на задание. Их задача - похищение небольшой группы ученых, которые занимаются изучением метеорита, упавшего в африканских джунглях и обладающего огромной разрушительной силой. По окончании операции всю группу спецназа пытаются ликвидировать. Однако один из солдат выживает после подстроенной авиакатастрофы. Едва живого, его находят туземцы и забирают с собой. На вопрос своих спасителей о том, кто он такой, солдат не может ответить ничего, кроме как адресовать им тот же вопрос - он не помнит ничего из того, что с ним было. Туземцы, принимая его ответ за имя, начинают называть гостя "Кто я". Однажды солдат вновь оказывается на месте падения вертолёта и начинает смутно вспоминать о произошедшем. Надеясь восстановить память, он решает идти назад к цивилизации и вскоре случайно нападает на след людей, виновных в авиакатастрофе. Преступников, намеревающихся продать метеорит...Огромная благодарность:
Club-Life - WEB-DL 1080p.
Slink - перевод с телеканала ТВ6, записанный в начале 2000-х через видеомагнитофон и оцифрованный с видеокассеты.
JUSTKANT - синхронизация перевода.В сэмпле сравнение с таким же переводом из этой раздачи.
Рейтинг
Качество видео: WEB-DLRip
Формат видео: AVI -> //Сэмпл//
Видео: XviD, 720x304 (2.35:1), 23.976 fps, 1956 kbps
Аудио:
1 - 48 khz, AC3 Dolby Digital, 2/0 ch, ~192 kbps [ТВ6] VHSRip-ТВ
2 - 48 khz, AC3 Dolby Digital, 5/1 ch, ~384 kbps [Английский]
Формат субтитров: softsub (SRT) / hardsub (неотключаемые)ОБНОВЛЕНИЕ РЕЛИЗА ОТ 08.11.2018.
Замена видеоряда + пере-синхронизация перевода ТВ6 под новый видеоряд.
Просьба пере-скачать торрент!

MediaInfo

GeneralComplete name               : D:\ТОРРЕНТЫ (Фильмы для рутрекера)\Кто я (Ngo si seoi) (Who Am I) 1998 - ТВ6 + Оригинал.aviFormat                      : AVIFormat/Info                 : Audio Video InterleaveFormat profile              : OpenDMLFile size                   : 2.15 GiBDuration                    : 2 h 0 minOverall bit rate            : 2 550 kb/sMovie name                  : Кто я? / Who Am I? / Ngo si seoi (ТВ6 + Оригинал)Director                    : JUSTKANTWriting application         : VirtualDubMod 1.5.10.2 (build 2540/release)Copyright                   : На русский язык фильм озвучен фирмой "СВ-Кадр" на тон-студии "Мосфильм" по заказу М.Н.В.К. в 1999 годуComment                     : Качество звука: VHSRip-ТВ (Slink)VideoID                          : 0Format                      : MPEG-4 VisualFormat profile              : Advanced Simple@L5Format settings             : BVOP1 / Custom MatrixFormat settings, BVOP       : 1Format settings, QPel       : NoFormat settings, GMC        : No warppointsFormat settings, Matrix     : CustomCodec ID                    : XVIDCodec ID/Hint               : XviDDuration                    : 2 h 0 minBit rate                    : 1 956 kb/sWidth                       : 720 pixelsHeight                      : 304 pixelsDisplay aspect ratio        : 2.35:1Frame rate                  : 23.976 (24000/1001) FPSColor space                 : YUVChroma subsampling          : 4:2:0Bit depth                   : 8 bitsScan type                   : ProgressiveCompression mode            : LossyBits/(Pixel*Frame)          : 0.373Stream size                 : 1.65 GiB (77%)Writing library             : XviD 1.2.1 (UTC 2008-12-04)Audio #1ID                          : 1Format                      : AC-3Format/Info                 : Audio Coding 3Commercial name             : Dolby DigitalCodec ID                    : 2000Duration                    : 2 h 0 minBit rate mode               : ConstantBit rate                    : 192 kb/sChannel(s)                  : 2 channelsChannel layout              : L RSampling rate               : 48.0 kHzFrame rate                  : 31.250 FPS (1536 SPF)Bit depth                   : 16 bitsCompression mode            : LossyStream size                 : 165 MiB (8%)Alignment                   : Split accross interleavesInterleave, duration        : 42  ms (1.00 video frame)Interleave, preload duratio : 500  msTitle                       : ТВ6: Сергей Чекан и Ольга СиринаService kind                : Complete MainAudio #2ID                          : 2Format                      : AC-3Format/Info                 : Audio Coding 3Commercial name             : Dolby DigitalCodec ID                    : 2000Duration                    : 2 h 0 minBit rate mode               : ConstantBit rate                    : 384 kb/sChannel(s)                  : 6 channelsChannel layout              : L R C LFE Ls RsSampling rate               : 48.0 kHzFrame rate                  : 31.250 FPS (1536 SPF)Bit depth                   : 16 bitsCompression mode            : LossyStream size                 : 331 MiB (15%)Alignment                   : Split accross interleavesInterleave, duration        : 42  ms (1.00 video frame)Interleave, preload duratio : 500  msTitle                       : Оригинальный (английский)Service kind                : Complete Main

Скриншоты

РАЗДАЮ ДО ЗАВТРАШНЕГО ДНЯ, ПОТОМ У СЕБЯ УДАЛЯЮ.

Для скачки контента: [Установить программу-клиент] и кликнуть по - СкачатьБезопасность: клиент проверен АВ Касперского

[asmlocator.ru].t585197.torrent 
Торрент: Зарегистрирован [ 2018-11-08 22:20 ] · E3E6828783424A80545F32B15493EA1F998D1541

Скачать .torrent

Скачать

11 KB

Статус: проверено
Скачан: 0 раз
Размер: 2,15 GB
terms.php
[Профиль] [ЛС]
Показать сообщения:    
Ответить на тему

Текущее время: 18-Ноя 02:43

Часовой пояс: UTC ± 0



Вы не можете начинать темы
Вы не можете отвечать на сообщения
Вы не можете редактировать свои сообщения
Вы не можете удалять свои сообщения
Вы не можете голосовать в опросах
Вы не можете прикреплять файлы к сообщениям
Вы можете скачивать файлы