Да здравствует король Джулиан: Изгнание! / All Hail King Julien: Exiled / Сезон: 1 / Серии: 1 из 13 (Чристо Стамболиев, Мэтт Энгстром, Джеймс Вуттон) [2017, США, Мультсериал, комедия, приключения, семейный, WEBRip 1080p] Dub + Rus Sub

Ответить на тему
Статистика раздачи
Размер:  809 MB   |    Зарегистрирован:  9 дней   |    Скачан:  0 раз

Полного источника не было: Никогда

 
   
 
 
Автор Сообщение

star21 ®

Пол: Женский

Стаж: 3 года

Сообщений: 552916

Откуда: Екатеринбург

Создавать темы 08-Ноя-2018 20:10

[Цитировать]

Да здравствует король Джулиан: Изгнание! / All Hail King Julien: Exiled Страна: США
Жанр: Мультсериал, комедия, приключения, семейный
Продолжительность серии: 23:00
Год выпуска: 2017
Перевод: Профессиональный (дублированный)
Перевод 2: Субтитры
Русские субтитры: естьРежиссёр: Чристо Стамболиев, Мэтт Энгстром, Джеймс Вуттон
Роли озвучивали: Дэнни Джейкобс, Энди Рихтер, Кевин Майкл Ричардсон, Индия де Бефорт, Джефф Беннетт, Дебра Уилсон, Сара Тайр, Бетси Содаро, Генри Уинклер, Дуайт Шульц, Дидрих Бадер, Джеймс УрбанякОписание: Спин-офф серии мультипликационных фильмов «Мадагаскар». Мультсериал рассказывает об инфантильном и эгоцентричном короле лемуров Джулиане и его жизни до встречи с героями мультфильма «Мадагаскар». Его девиз: «Лови момент!» Как полноправный правитель своего королевства, он постоянно закатывает грандиозные вечеринки и строго следит за тем, чтобы каждый день его подданные проживали как последний.Доп. информация: работа со звуком: serial_M
запись звука: Beer kolesik Drinkers, #Antisnl#Семпл: http://multi-up.com/1214329Качество: WEBRip 1080p
Формат: MKV
Видео: 1912×1072 at 23.976 fps, MPEG-4 AVC, ~4220 kbps avg
Аудио 1: Russian: 48 kHz, AC3, 2.0 (L,R) ch, ~192.00 kbps avg | Дубляж, SDI Media |
Аудио 2: English: 48 kHz, AC3, 3/2 (L,C,R,l,r) + LFE ch, ~384.00 kbps avg
Субтитры: Russian(Елена Рыбакова, Анастасия Кисиленко), English (SDH)

Подробные технические данные

GeneralUnique ID                   : 240190514110063363675978082411393277393 (0xB4B302A62E8CD99E1AB5E5713CB35DD1)Complete name               : M:\Films\All.Hail.King.Julien.Exiled.S01.WEBRip.1080p.Rus.Eng\All.Hail.King.Julien.Exiled.S01E01.WEBRip.1080p.Rus.Eng.mkvFormat                      : MatroskaFormat version              : Version 4 / Version 2File size                   : 809 MiBDuration                    : 23 min 50 sOverall bit rate mode       : VariableOverall bit rate            : 4 747 kb/sMovie name                  : All Hail King Julien: Exiled 1x01 - Release serial_MEncoded date                : UTC 2018-11-08 14:49:47Writing application         : mkvmerge v20.0.0 ('I Am The Sun') 64-bitWriting library             : libebml v1.3.5 + libmatroska v1.4.8VideoID                          : 1Format                      : AVCFormat/Info                 : Advanced Video CodecFormat profile              : Main@L4Format settings             : CABAC / 3 Ref FramesFormat settings, CABAC      : YesFormat settings, ReFrames   : 3 framesCodec ID                    : V_MPEG4/ISO/AVCDuration                    : 23 min 49 sBit rate mode               : VariableBit rate                    : 4 220 kb/sMaximum bit rate            : 6 330 kb/sWidth                       : 1 920 pixelsHeight                      : 1 080 pixelsDisplay aspect ratio        : 16:9Frame rate mode             : ConstantFrame rate                  : 23.976 (24000/1001) FPSColor space                 : YUVChroma subsampling          : 4:2:0Bit depth                   : 8 bitsScan type                   : ProgressiveBits/(Pixel*Frame)          : 0.085Stream size                 : 711 MiB (88%)Title                       : All Hail King Julien: Exiled 1x01 - Release serial_MWriting library             : x264 core 118Encoding settings           : cabac=1 / ref=3 / deblock=1:0:0 / analyse=0x1:0x111 / me=umh / subme=10 / psy=1 / psy_rd=1.00:0.00 / mixed_ref=1 / me_range=24 / chroma_me=1 / trellis=2 / 8x8dct=0 / cqm=0 / deadzone=21,11 / fast_pskip=1 / chroma_qp_offset=-2 / threads=8 / sliced_threads=0 / nr=0 / decimate=1 / interlaced=0 / bluray_compat=0 / constrained_intra=0 / bframes=2 / b_pyramid=0 / b_adapt=2 / b_bias=0 / direct=3 / weightb=1 / open_gop=0 / weightp=2 / keyint=48 / keyint_min=25 / scenecut=0 / intra_refresh=0 / rc_lookahead=0 / rc=2pass / mbtree=1 / bitrate=4220 / ratetol=1.0 / qcomp=0.50 / qpmin=6 / qpmax=51 / qpstep=4 / cplxblur=20.0 / qblur=0.5 / vbv_maxrate=6330 / vbv_bufsize=8440 / nal_hrd=vbr / ip_ratio=1.40 / aq=1:1.00Language                    : EnglishDefault                     : YesForced                      : NoAudio #1ID                          : 2Format                      : AC-3Format/Info                 : Audio Coding 3Codec ID                    : A_AC3Duration                    : 23 min 50 sBit rate mode               : ConstantBit rate                    : 192 kb/sChannel(s)                  : 2 channelsChannel positions           : Front: L RSampling rate               : 48.0 kHzFrame rate                  : 31.250 FPS (1536 SPF)Bit depth                   : 16 bitsCompression mode            : LossyStream size                 : 32.7 MiB (4%)Title                       : DubLanguage                    : RussianService kind                : Complete MainDefault                     : YesForced                      : NoAudio #2ID                          : 3Format                      : AC-3Format/Info                 : Audio Coding 3Codec ID                    : A_AC3Duration                    : 23 min 50 sBit rate mode               : ConstantBit rate                    : 384 kb/sChannel(s)                  : 6 channelsChannel positions           : Front: L C R, Side: L R, LFESampling rate               : 48.0 kHzFrame rate                  : 31.250 FPS (1536 SPF)Bit depth                   : 16 bitsCompression mode            : LossyStream size                 : 65.5 MiB (8%)Title                       : EnglishLanguage                    : EnglishService kind                : Complete MainDefault                     : NoForced                      : NoText #1ID                          : 4Format                      : UTF-8Codec ID                    : S_TEXT/UTF8Codec ID/Info               : UTF-8 Plain TextDuration                    : 22 min 46 sBit rate                    : 150 b/sCount of elements           : 337Stream size                 : 25.1 KiB (0%)Title                       : rus-subLanguage                    : RussianDefault                     : NoForced                      : NoText #2ID                          : 5Format                      : UTF-8Codec ID                    : S_TEXT/UTF8Codec ID/Info               : UTF-8 Plain TextDuration                    : 22 min 41 sBit rate                    : 96 b/sCount of elements           : 440Stream size                 : 16.1 KiB (0%)Title                       : eng-subLanguage                    : EnglishDefault                     : NoForced                      : No

Скриншоты

Предыдущие и альтернативные раздачи

Для скачки контента: [Установить программу-клиент] и кликнуть по - СкачатьБезопасность: клиент проверен АВ Касперского

[asmlocator.ru].t585127.torrent 
Торрент: Зарегистрирован [ 2018-11-08 20:10 ] · 4E5A4BE4EAAC79C43CF8CFA2CFDAE95FDF71AC1B

Скачать .torrent

Скачать

16 KB

Статус: проверено
Скачан: 0 раз
Размер: 809 MB
terms.php
[Профиль] [ЛС]
Показать сообщения:    
Ответить на тему

Текущее время: 18-Ноя 02:43

Часовой пояс: UTC ± 0



Вы не можете начинать темы
Вы не можете отвечать на сообщения
Вы не можете редактировать свои сообщения
Вы не можете удалять свои сообщения
Вы не можете голосовать в опросах
Вы не можете прикреплять файлы к сообщениям
Вы можете скачивать файлы