Свадьба / La boda / The Wedding (Марина Сересески / Marina Seresesky) [2012, Испания, комедия, короткий метр, DVB-AVC] DVO (Акцент) + Original (Esp)

Ответить на тему
Статистика раздачи
Размер:  124 MB   |    Зарегистрирован:  9 дней   |    Скачан:  0 раз
Сидов:  1  [  0 KB/s  ]   Подробная статистика пиров
 
   
 
 
Автор Сообщение

star21 ®

Пол: Женский

Стаж: 3 года

Сообщений: 552916

Откуда: Екатеринбург

Создавать темы 08-Ноя-2018 20:10

[Цитировать]

Свадьба
La boda Страна: Испания
Жанр: комедия, короткий метр
Год выпуска: 2012
Продолжительность: 00:12:05Перевод: Профессиональный (двухголосый закадровый) Студия "Акцент" по заказу Kino Polska
Субтитры: нет
Оригинальная аудиодорожка: испанскийРежиссер: Марина Сересески / Marina SereseskyВ ролях: Яйлене Сьерра / Yailene Sierra (Mirta), Илеана Уилсон / Ileana Wilson (Yolanda), Милена Альтерио / Malena Alterio (Luisa), Йоима Вальдес / Yoima Valdes (Jefa), Элена Ирурета / Elena Irureta (Peluquera)Описание: Мирта, эмигрантка из Кубы, работающая уборщицей в Мадриде, преодолевает все трудности и препятствия, неожиданно возникающие на ее пути, чтобы успеть на свадьбу дочери. Пусть даже их разделают сотни километров...Доп. информация: Intelsat 15 (85.0°E) Filmbox Arthouse DVB-SНаграды: номинация на премию "Гойя" 2013 Испанской академии кинематографических искусств и наук в категории "Лучший игровой короткометражный фильм"; 3 приза Festival de Cine de L'Alfas del Pi 2012 (лучшая короткометражка, лучшая актриса - Yailene Sierra, лучший сценарий); приз за лучший художественный фильм Arouca Film Festival (Portugal) 2012; Особое упоминание жюри за лучший короткометражный художественный фильм Tirana International Film Festival, AL 2012; 2 приза New York City Short Film Festival 2013 (лучший фильм фестиваля, приз зрительских симпатий); др. награды. Качество видео: DVB
Формат видео: MKVВидео: AVC (H.264), 720x576@1024x576 (16:9), 25 fps, ~1153 kbps avg, 0.106 bit/pixel
Аудио 1: MPEG Audio 2, 2 ch, 48 kHz, 128 kbps - русский
Аудио 2: MPEG Audio 2, 2 ch, 48 kHz, 128 kbps - испанский

MediaInfo

GeneralUnique ID                                : 4818936170677887282480122615885873281 (0x3A017E598CB46BD1ADE7301460A4081)Complete name                            : [apreder]MM_La_boda(2012)DVB.mkvFormat                                   : MatroskaFormat version                           : Version 2File size                                : 124 MiBDuration                                 : 12 min 5 sOverall bit rate                         : 1 437 kb/sMovie name                               : La bodaReleased date                            : 2012-00-00Encoded date                             : UTC 2018-11-08 14:49:11Writing application                      : mkvmerge v28.2.0 ('The Awakening') 64-bitWriting library                          : libebml v1.3.6 + libmatroska v1.4.9Cover                                    : YesAttachments                              : cover.jpg / small_cover.jpgACTOR                                    : Yailene Sierra, Ileana Wilson, Malena AlterioDIRECTOR                                 : Marina SereseskyGENRE                                    : Short, DramaIMDB                                     : tt2354149KEYWORDS                                 : rutracker.orgLAW_RATING                               : 16+VideoID                                       : 1Format                                   : AVCFormat/Info                              : Advanced Video CodecFormat profile                           : Main@L3Format settings                          : CABAC / 3 Ref FramesFormat settings, CABAC                   : YesFormat settings, RefFrames               : 3 framesCodec ID                                 : V_MPEG4/ISO/AVCBit rate                                 : 1 153 kb/sWidth                                    : 720 pixelsHeight                                   : 576 pixelsDisplay aspect ratio                     : 16:9Original display aspect ratio            : 16:9Frame rate mode                          : VariableOriginal frame rate                      : 25.000 FPSStandard                                 : ComponentColor space                              : YUVChroma subsampling                       : 4:2:0Bit depth                                : 8 bitsScan type                                : InterlacedScan type, store method                  : Separated fieldsScan order                               : Top Field FirstDefault                                  : YesForced                                   : NoColor range                              : LimitedColor primaries                          : BT.601 PALTransfer characteristics                 : BT.470 System B/GMatrix coefficients                      : BT.470 System B/GAudio #1ID                                       : 2Format                                   : MPEG AudioFormat version                           : Version 1Format profile                           : Layer 2Codec ID                                 : A_MPEG/L2Codec ID/Hint                            : MP2Duration                                 : 12 min 5 sBit rate mode                            : ConstantBit rate                                 : 128 kb/sChannel(s)                               : 2 channelsSampling rate                            : 48.0 kHzCompression mode                         : LossyStream size                              : 11.1 MiB (9%)Language                                 : RussianDefault                                  : YesForced                                   : NoAudio #2ID                                       : 3Format                                   : MPEG AudioFormat version                           : Version 1Format profile                           : Layer 2Codec ID                                 : A_MPEG/L2Codec ID/Hint                            : MP2Duration                                 : 12 min 5 sBit rate mode                            : ConstantBit rate                                 : 128 kb/sChannel(s)                               : 2 channelsSampling rate                            : 48.0 kHzCompression mode                         : LossyStream size                              : 11.1 MiB (9%)Language                                 : SpanishDefault                                  : NoForced                                   : No

Скриншот c названием фильма

Скриншоты

Резервные скриншоты

[4'387]

Для скачки контента: [Установить программу-клиент] и кликнуть по - СкачатьБезопасность: клиент проверен АВ Касперского

[asmlocator.ru].t585120.torrent 
Торрент: Зарегистрирован [ 2018-11-08 20:10 ] · E3E6775FD4F0E6AF35CDE44540D1CD76C0F5B361

Скачать .torrent

Скачать

2 KB

Статус: проверено
Скачан: 0 раз
Размер: 124 MB
terms.php
[Профиль] [ЛС]
Показать сообщения:    
Ответить на тему

Текущее время: 18-Ноя 02:42

Часовой пояс: UTC ± 0



Вы не можете начинать темы
Вы не можете отвечать на сообщения
Вы не можете редактировать свои сообщения
Вы не можете удалять свои сообщения
Вы не можете голосовать в опросах
Вы не можете прикреплять файлы к сообщениям
Вы можете скачивать файлы