(Electronic Tango) [CD] Otros Aires - Otros Aires - 2004, FLAC (image+.cue), lossless

Ответить на тему
Статистика раздачи
Размер:  322 MB   |    Зарегистрирован:  4 дня   |    Скачан:  0 раз

Полного источника не было: Никогда

 
   
 
 
Автор Сообщение

star21 ®

Пол: Женский

Стаж: 3 года

Сообщений: 552924

Откуда: Екатеринбург

Создавать темы 08-Ноя-2018 16:00

[Цитировать]

Otros Aires / Otros Aires Жанр: Electronic Tango
Носитель: CD
Страна-производитель диска (релиза): Argentina
Год издания: 2004
Издатель (лейбл): Unión De Músicos Independientes
Номер по каталогу: AADI-CAPIF-SADAIC-BIEM
Страна исполнителя (группы): Argentina
Аудиокодек: FLAC (*.flac)
Тип рипа: image+.cue
Битрейт аудио: lossless
Продолжительность: 00:43:18
Источник (релизер): Собственный рип
Наличие сканов в содержимом раздачи: да
Треклист:
01. Sin Rumbo [0:03:53.34]
02. Percanta [0:05:00.65]
03. La Pampa Seca [0:05:43.60]
04. Barrio de Tango [0:04:41.64]
05. Milonga Sentimental [0:03:56.47]
06. Aquel Muchacho Bueno [0:03:58.23]
07. Rotos en el Raval [0:03:53.10]
08. De Puro Curda [0:03:48.23]
09. Amor Que Se Baila [0:04:10.26]
10. En Dirección a Mi Casa [0:04:11.37]

Лог создания рипа

Exact Audio Copy V1.3 from 2. September 2016Отчёт EAC об извлечении, выполненном 8. ноября 2018, 17:39Otros Aires / Otros AiresДисковод: PLEXTOR DVDR   PX-755A   Adapter: 1  ID: 0Режим чтения                 : ДостоверностьИспользование точного потока : ДаОтключение кэша аудио        : ДаИспользование указателей C2  : НетКоррекция смещения при чтении                     : 30Способность читать области Lead-in и Lead-out     : НетЗаполнение пропущенных сэмплов тишиной            : ДаУдаление блоков с тишиной в начале и конце        : НетПри вычислениях CRC использовались нулевые сэмплы : ДаИнтерфейс                                         : Встроенный Win32-интерфейс для Win NT/2000Выходной формат          : Пользовательский кодировщикВыбранный битрейт        : 1024 kBit/sКачество                 : ВысокийДобавление ID3-тега      : НетУтилита сжатия           : C:\Program Files (x86)\Exact Audio Copy\FLAC\FLAC.EXEДополнительные параметры : -6 -V -T "ARTIST=%artist%" -T "TITLE=%title%" -T "ALBUM=%albumtitle%" -T "DATE=%year%" -T "TRACKNUMBER=%tracknr%" -T "GENRE=%genre%" -T "COMMENT=%comment%" -T "BAND=%albuminterpret%" -T "ALBUMARTIST=%albuminterpret%" -T "COMPOSER=%composer%" %haslyrics%--tag-from-file=LYRICS="%lyricsfile%"%haslyrics% -T "DISCNUMBER=%cdnumber%" -T "TOTALDISCS=%totalcds%" -T "TOTALTRACKS=%numtracks%" %hascover%--picture="%coverfile%"%hascover% %source% -o %dest%TOC извлечённого CD     Трек |   Старт  | Длительность | Начальный сектор | Конечный сектор    ---------------------------------------------------------------------       1  |  0:00.00 |    3:53.34   |           0      |      17508       2  |  3:53.34 |    5:00.65   |       17509      |      40073       3  |  8:54.24 |    5:43.60   |       40074      |      65858       4  | 14:38.09 |    4:41.64   |       65859      |      86997       5  | 19:19.73 |    3:56.47   |       86998      |     104744       6  | 23:16.45 |    3:58.23   |      104745      |     122617       7  | 27:14.68 |    3:53.10   |      122618      |     140102       8  | 31:08.03 |    3:48.23   |      140103      |     157225       9  | 34:56.26 |    4:10.26   |      157226      |     176001      10  | 39:06.52 |    4:11.37   |      176002      |     194863Характеристики диапазона извлечения и сообщения об ошибкахВыбранный диапазон     Имя файла E:\РАЗДАЧА\Otros Aires - Otros Aires (2004)\Otros Aires - Otros Aires.wav     Пиковый уровень 100.0 %     Скорость извлечения 2.5 X     Качество диапазона 100.0 %     CRC теста 904BC59A     CRC копии 904BC59A     Копирование... OKОшибок не произошлоAccurateRip: сводкаТрек  1  : извлечено точно (доверие 22)  [6EBC46AE]  (AR v2)Трек  2  : извлечено точно (доверие 23)  [4BC8B139]  (AR v2)Трек  3  : извлечено точно (доверие 17)  [D6531C0E]  (AR v2)Трек  4  : извлечено точно (доверие 23)  [17748835]  (AR v2)Трек  5  : извлечено точно (доверие 23)  [0BB1BB73]  (AR v2)Трек  6  : извлечено точно (доверие 23)  [8B9C9567]  (AR v2)Трек  7  : извлечено точно (доверие 23)  [B2E43AAA]  (AR v2)Трек  8  : извлечено точно (доверие 23)  [404DFFAE]  (AR v2)Трек  9  : извлечено точно (доверие 23)  [FAFC30B5]  (AR v2)Трек 10  : извлечено точно (доверие 22)  [8FD314C0]  (AR v2)Все треки извлечены точноКонец отчёта==== Контрольная сумма отчёта 245A6400C49694632DC2FB3F302424E82E5968A1A3AAEFE64622BE0138C55A82 ====

Для скачки контента: [Установить программу-клиент] и кликнуть по - СкачатьБезопасность: клиент проверен АВ Касперского

[asmlocator.ru].t585110.torrent 
Торрент: Зарегистрирован [ 2018-11-08 16:00 ] · 2049E98190AFF77C4FB51E5156780111B2A6F752

Скачать .torrent

Скачать

14 KB

Статус: проверено
Скачан: 0 раз
Размер: 322 MB
terms.php
[Профиль] [ЛС]
Показать сообщения:    
Ответить на тему

Текущее время: 12-Ноя 19:00

Часовой пояс: UTC ± 0



Вы не можете начинать темы
Вы не можете отвечать на сообщения
Вы не можете редактировать свои сообщения
Вы не можете удалять свои сообщения
Вы не можете голосовать в опросах
Вы не можете прикреплять файлы к сообщениям
Вы можете скачивать файлы