Перехватчики МиГ-25 и МиГ-31. Лучшие в своём деле (2 серии из 2) (Андрей Кулясов) [2012, Документальный, авиация, вооружение, история, WEB-DLRip 720p]

Ответить на тему
Статистика раздачи
Размер:  2,8 GB   |    Зарегистрирован:  4 дня   |    Скачан:  0 раз

Полного источника не было: Никогда

 
   
 
 
Автор Сообщение

star21 ®

Пол: Женский

Стаж: 3 года

Сообщений: 552924

Откуда: Екатеринбург

Создавать темы 08-Ноя-2018 16:00

[Цитировать]

Перехватчики МиГ-25 и МиГ-31. Лучшие в своём деле (2 серии из 2) Год выпуска: 2012
Страна: Россия
Студия: Киностудия «Крылья России»
Жанр: Документальный, авиация, вооружение, история
Продолжительность: 2 x ~ 00:38:34
Перевод: Не требуется
Режиссер: Андрей КулясовОписание: МиГ-25 стал прорывным проектом развития этого вида самолета в СССР. За ним охотились разведслужбы многих стран мира. А угнанный перебежчиком Беленко экземпляр самолета был разобран в Японии до винтиков. На этом самолете установлено множество мировых рекордов, многие из которых не побиты по сей день. А самолет МиГ-31, являющийся логическим развитием МиГ-25, не имеет аналогов в мире.Доп. информация: Авторство релиза - alf62
Тип релиза: WEB-DLRip 720p
Контейнер: MKVВидео: MPEG-4 AVC, ~ 5000 Кбит/с, 1280х720, (16:9), 25.000 fps
Аудио: Русский, AC3, 2 ch, 192 Кбит/сПерехватчики МиГ-25 и МиГ-31. Лучшие в своём деле на rutracker.cr

Список выпусков/серий

Фильм 1
Предпосылки к созданию самолета МиГ-25. Проектирование и испытания. Трагические эпизоды в истории МиГ-25. Перехватчик МиГ-25 в войсках. Тактико-технические характеристики и вооружение. Разведывательные модификации. МиГ-25 - в Египетско-Израильском конфликте.Фильм 2
Угон МиГ-25 в Японию. Совершенствование МиГ-25. Предпосылки к созданию перехватчика МиГ-31. Тактико-технические характеристики и вооружение МиГ-31. Гибель летчика-испытателя Александра Федорова. Модернизация МиГ-31. МиГ-31 в ВВС России.

MediaInfo

ОбщееУникальный идентификатор                 : 251303804091470604161093775774759075524 (0xBD0F5A2618E8B77FBF7AC98A94713EC4)Полное имя                               : D:\Запись\Перехватчики МиГ-25 и МиГ-31\Перехватчики.МиГ-25.31.(2.серии).2012.WEB-DLRip.(720р).alf62\Перехватчики.МиГ-25.31.(1.серия).2012.WEB-DLRip.(720р).alf62.mkvФормат                                   : MatroskaВерсия формата                           : Version 2Размер файла                             : 1,40 ГбайтПродолжительность                        : 38 м.Общий поток                              : 5193 Кбит/секДата кодирования                         : UTC 2018-11-01 21:53:02Программа кодирования                    : mkvmerge v7.8.0 ('River Man') 32bit built on Apr  3 2015 12:11:22Библиотека кодирования                   : libebml v1.3.1 + libmatroska v1.4.2ВидеоИдентификатор                            : 1Формат                                   : AVCФормат/Информация                        : Advanced Video CodecПрофиль формата                          : High@L4.1Параметр CABAC формата                   : ДаПараметр ReFrames формата                : 8 кадровИдентификатор кодека                     : V_MPEG4/ISO/AVCПродолжительность                        : 38 м.Битрейт                                  : 5000 Кбит/секШирина                                   : 1280 пикселейВысота                                   : 720 пикселейСоотношение сторон                       : 16:9Режим частоты кадров                     : ПостоянныйЧастота кадров                           : 25,000 кадров/секЦветовое пространство                    : YUVСубдискретизация насыщенности            : 4:2:0Битовая глубина                          : 8 битТип развёртки                            : ПрогрессивнаяБит/(Пиксели*Кадры)                      : 0.217Размер потока                            : 1,32 Гбайт (94%)Библиотека кодирования                   : x264 core 146 r2538 121396cНастройки программы                      : cabac=1 / ref=8 / deblock=1:-1:-2 / analyse=0x3:0x113 / me=umh / subme=10 / psy=1 / psy_rd=1.00:0.00 / mixed_ref=1 / me_range=32 / chroma_me=1 / trellis=2 / 8x8dct=1 / cqm=0 / deadzone=21,11 / fast_pskip=0 / chroma_qp_offset=-2 / threads=6 / lookahead_threads=1 / sliced_threads=0 / nr=0 / decimate=0 / interlaced=0 / bluray_compat=0 / constrained_intra=0 / bframes=9 / b_pyramid=2 / b_adapt=2 / b_bias=0 / direct=3 / weightb=1 / open_gop=0 / weightp=2 / keyint=250 / keyint_min=25 / scenecut=40 / intra_refresh=0 / rc_lookahead=40 / rc=2pass / mbtree=1 / bitrate=5000 / ratetol=1.0 / qcomp=0.60 / qpmin=10 / qpmax=51 / qpstep=4 / cplxblur=20.0 / qblur=0.5 / vbv_maxrate=14000 / vbv_bufsize=14000 / nal_hrd=none / filler=0 / ip_ratio=1.40 / aq=1:0.80Default                                  : ДаForced                                   : НетАудиоИдентификатор                            : 2Формат                                   : AC-3Формат/Информация                        : Audio Coding 3Расширение режима                        : CM (complete main)Параметр Endianness формата              : BigИдентификатор кодека                     : A_AC3Продолжительность                        : 38 м.Вид битрейта                             : ПостоянныйБитрейт                                  : 192 Кбит/секКаналы                                   : 2 каналаРасположение каналов                     : Front: L RЧастота                                  : 48,0 КГцЧастота кадров                           : 31,250 кадров/сек (1536 spf)Метод сжатия                             : С потерямиРазмер потока                            : 52,9 Мбайт (4%)Default                                  : ДаForced                                   : Нет

Для скачки контента: [Установить программу-клиент] и кликнуть по - СкачатьБезопасность: клиент проверен АВ Касперского

[asmlocator.ru].t585077.torrent 
Торрент: Зарегистрирован [ 2018-11-08 16:00 ] · ECC1027BD340679956C3391CF1F549303FCE13EE

Скачать .torrent

Скачать

15 KB

Статус: проверено
Скачан: 0 раз
Размер: 2,8 GB
terms.php
[Профиль] [ЛС]
Показать сообщения:    
Ответить на тему

Текущее время: 12-Ноя 18:59

Часовой пояс: UTC ± 0



Вы не можете начинать темы
Вы не можете отвечать на сообщения
Вы не можете редактировать свои сообщения
Вы не можете удалять свои сообщения
Вы не можете голосовать в опросах
Вы не можете прикреплять файлы к сообщениям
Вы можете скачивать файлы