Алиса или Алиса: Брат-сисконщик и сёстры-близняшки / Alice or Alice: Siscon Niisan to Futago no Imouto [TV] [12 из 12] [Без хардсаба] [RUS(ext), JAP+SUB] [2018, комедия, повседневность, этти, BDRip] [1080p]

Ответить на тему
Статистика раздачи
Размер:  1,4 GB   |    Зарегистрирован:  9 дней   |    Скачан:  0 раз

Полного источника не было: Никогда

 
   
 
 
Автор Сообщение

star21 ®

Пол: Женский

Стаж: 3 года

Сообщений: 552916

Откуда: Екатеринбург

Создавать темы 08-Ноя-2018 11:50

[Цитировать]

Страна: Япония
Год выпуска: 2018
Жанр: комедия, повседневность, этти, сёдзё-ай
Тип: TV | Продолжительность: 12 эп., ~5 мин. эпизод
Выпуск: c 04.04.2018 по 20.06.2018
Рейтинг: PG-13Озвучка:
  • #1 Трёхголосая (муж/жен/жен) от Sharon & Kanade EU & VieliS [AniLibria]
  • #2 Многоголосая от [KANSAI]
    Перевод:
  • Субтитры от [AniLibria] (полные/надписи) | .ass, внешние;
    Перевод: LolWhat | Оформление: DiaZone | Тайминг: DarkKnight
  • Субтитры от [Zero] (полные) | .ass, внешние;
    Тайминг субтитров под BDRip: SkycleanРежиссер: Кобаяси Косукэ
    Студия: Описание: История о повседневной жизни двух сестёр-близняшек, которых зовут Алисами (в миру известных как Риса и Айри), и об их безымянном брате, который страдает «комплексом сестры». Каждый их день полон новых приключений и романтических моментов. Но, как не трудно предположить, невозможно обойтись без небольших драк и ссор между близняшками за любимого братика, а также колких саркастических фраз, иногда проскальзывающих в диалогах между героями. За этой нескучной жизнью двух Алис и одного брата-сисконщика мы и понаблюдаем.Доп. информация: World-art | AniDBКачество: BDRip | Автор рипа: [Reinforce]
    Тип релиза: Без хардсаба, без линковки
    Формат видео: MKV
    Видео: x264; MPEG4; 1920x1080; 3658 Кбит/сек; 23,976 кадра/сек; 8bit
    Аудио: JAP(int); FLAC; 758 Кбит/сек; 48,0 КГц; 2 канала
    Аудио 1-2: RUS(ext); AAC, 48.0 КГц, 192 Кбит/сек, 2 канала - Озвучку предоставил - DS29028888

Подробные тех. данные

ОбщееУникальный идентификатор                 : 205717137640225734062374950016230807818 (0x9AC3ADF6B1896DC7D190F63137EED90A)Полное имя                               : D:\na\[ReinForce] Alice or Alice (BDRip 1920x1080 x264 FLAC)\[ReinForce] Alice or Alice - 01 (BDRip 1920x1080 x264 FLAC).mkvФормат                                   : MatroskaВерсия формата                           : Version 4Размер файла                             : 94,8 МбайтПродолжительность                        : 2 м. 59 с.Режим общего битрейта                    : ПеременныйОбщий поток                              : 4418 Кбит/секДата кодирования                         : UTC 2018-11-08 08:57:10Программа кодирования                    : mkvmerge v28.2.0 ('The Awakening') 64-bitБиблиотека кодирования                   : libebml v1.3.6 + libmatroska v1.4.9ВидеоИдентификатор                            : 1Формат                                   : AVCФормат/Информация                        : Advanced Video CodecПрофиль формата                          : High@L4Настройки формата                        : CABAC / 4 Ref FramesПараметр CABAC формата                   : ДаПараметр RefFrames формата               : 4 кадраИдентификатор кодека                     : V_MPEG4/ISO/AVCПродолжительность                        : 2 м. 59 с.Битрейт                                  : 3658 Кбит/секШирина                                   : 1920 пикселейВысота                                   : 1080 пикселейСоотношение сторон                       : 16:9Режим частоты кадров                     : ПостоянныйЧастота кадров                           : 23,976 (24000/1001) кадра/секЦветовое пространство                    : YUVСубдискретизация насыщенности            : 4:2:0Битовая глубина                          : 8 битТип развёртки                            : ПрогрессивнаяБит/(Пиксели*Кадры)                      : 0.074Размер потока                            : 78,5 Мбайт (83%)Библиотека кодирования                   : x264 core 152Настройки программы                      : opencl=1 / cabac=1 / ref=4 / deblock=1:-2:-2 / analyse=0x3:0x113 / me=umh / subme=9 / psy=1 / psy_rd=0.70:0.00 / mixed_ref=0 / me_range=32 / chroma_me=1 / trellis=2 / 8x8dct=1 / cqm=0 / deadzone=21,11 / fast_pskip=1 / chroma_qp_offset=-2 / threads=8 / lookahead_threads=1 / sliced_threads=0 / nr=0 / decimate=1 / interlaced=0 / bluray_compat=0 / constrained_intra=0 / bframes=9 / b_pyramid=2 / b_adapt=2 / b_bias=0 / direct=3 / weightb=1 / open_gop=0 / weightp=2 / keyint=250 / keyint_min=23 / scenecut=40 / intra_refresh=0 / rc_lookahead=40 / rc=crf / mbtree=1 / crf=16.0 / qcomp=0.70 / qpmin=10 / qpmax=20 / qpstep=4 / ip_ratio=1.40 / aq=1:1.00Default                                  : ДаForced                                   : НетАудиоИдентификатор                            : 2Формат                                   : FLACФормат/Информация                        : Free Lossless Audio CodecИдентификатор кодека                     : A_FLACПродолжительность                        : 2 м. 59 с.Вид битрейта                             : ПеременныйБитрейт                                  : 758 Кбит/секКаналы                                   : 2 каналаChannel layout                           : L RЧастота                                  : 48,0 КГцЧастота кадров                           : 11,724 кадров/сек (4094 SPF)Битовая глубина                          : 16 битМетод сжатия                             : Без потерьРазмер потока                            : 16,3 Мбайт (17%)Библиотека кодирования                   : libFLAC 1.3.2 (UTC 2017-01-01)Язык                                     : JapaneseDefault                                  : ДаForced                                   : Нет

Список эпизодов

1. A Sister-holic Brother and His Twin Sisters
2. Maco and Coco`s Cooking Challenge!
3. Kisaki`s Kisa Kissa
4. Ravenous Ruha
5. Everyone Goes to the Hot Springs?!
6. Everyone Goes to the Beach
7. A Rival Appears?! Yamiry Has Arrived!
8. Three Dark Christmas Contests!
9. A Heart-pounding New Year`s?! It`s a Sweet Sake Panic!
10. A Valentine`s Chocolate Showdown!
11. Rise and Airi`s Happy Birthday
12. It`s Official! We`re Kisakiss 6!

Скриншоты

Для скачки контента: [Установить программу-клиент] и кликнуть по - СкачатьБезопасность: клиент проверен АВ Касперского

[asmlocator.ru].t585033.torrent 
Торрент: Зарегистрирован [ 2018-11-08 11:50 ] · 17531CD82791086828C223057C6A658417A629B5

Скачать .torrent

Скачать

24 KB

Статус: проверено
Скачан: 0 раз
Размер: 1,4 GB
terms.php
[Профиль] [ЛС]
Показать сообщения:    
Ответить на тему

Текущее время: 18-Ноя 02:42

Часовой пояс: UTC ± 0



Вы не можете начинать темы
Вы не можете отвечать на сообщения
Вы не можете редактировать свои сообщения
Вы не можете удалять свои сообщения
Вы не можете голосовать в опросах
Вы не можете прикреплять файлы к сообщениям
Вы можете скачивать файлы