(Eurodance, Trance) [CD] VA - Дискотека Казанова - Dream House Vol. 2 - 1999, FLAC (image+.cue), lossless

Ответить на тему
Статистика раздачи
Размер:  733 MB   |    Зарегистрирован:  4 дня   |    Скачан:  0 раз

Полного источника не было: Никогда

 
   
 
 
Автор Сообщение

star21 ®

Пол: Женский

Стаж: 3 года

Сообщений: 552924

Откуда: Екатеринбург

Создавать темы 08-Ноя-2018 09:25

[Цитировать]

Дискотека Казанова - Dream House Vol. 2 Жанр: Eurodance, Trance
Носитель: CD
Страна-производитель диска: Russia
Год издания: 1999
Издатель (лейбл): Казанова Records
Номер по каталогу: KAZ-DH-2
Аудиокодек: FLAC (*.flac)
Тип рипа: image+.cue
Битрейт аудио: lossless
Продолжительность: 01:19:34
Источник (релизер): MWZR
Наличие сканов в содержимом раздачи: да (1200dpi)
Треклист:01. Eiffel 65 - Blue [Da Ba Dee] (DJ Ponte Ice Pop Mix)
02. Bad Boys Blue - Follow The Light
03. Pinball feat. MC Miker G. - Party (Don Esteban Remix Single)
04. Moloko - Sing It Back (Mousse T.'s Boot Edit)
05. The Bronx - Wrong Is (Radio Edit)
06. Time Motion Project - Pump This Party (Single Mix)
07. Hitch Hiker & Jacques Dumondt - Genesis Chapter 1 (Radio Version)
08. DJ Pi vs. C.O.P. Project - Don't Go (Radio Mix)
09. R.O.O.S. - Body, Mind & Spirit (Short Version)
10. Mark 'Oh vs. John Davies - Your Love (Video Mix)
11. Love and Fate - Deeper Love (Airplay Mix)
12. P.F.M. - The Arrival (Single Cut)
13. Anton feat. DJ Otzi - Aha-aha-aha?
14. The Dome Project feat. Rachel - Another Day (Extended Club Mix Cut)
15. Dreamzone - Moving On (Club Dance Mix)
16. ATB feat. Toerfisk - VLTJ (Dikkendoofs Goer Mix)
17. Jennifer Lopez - Waiting For Tonight (Hex's Momentous Club Mix Cut)
18. RB 69 - Relax (Original Radio Mix)
19. Antonia - Survivor (Nachtschicht) Треклист проверен и исправлен на реальные названия

Лог извлечения

Exact Audio Copy V1.1 from 23. June 2015EAC extraction logfile from 27. April 2018, 14:39VA / Dream House Vol. 2 (1999)Used drive  : PIONEER BD-RW   BDR-208D   Adapter: 1  ID: 0Read mode               : SecureUtilize accurate stream : YesDefeat audio cache      : YesMake use of C2 pointers : NoRead offset correction                      : 667Overread into Lead-In and Lead-Out          : NoFill up missing offset samples with silence : YesDelete leading and trailing silent blocks   : NoNull samples used in CRC calculations       : YesUsed interface                              : Native Win32 interface for Win NT & 2000Used output format              : User Defined EncoderSelected bitrate                : 128 kBit/sQuality                         : HighAdd ID3 tag                     : NoCommand line compressor         : C:\Program Files (x86)\Exact Audio Copy\Flac\flac.exeAdditional command line options : -V -8 -T "Date=%year%" -T "COMMENT=ripped by: MWZR" -T "Genre=%genre%" %source%TOC of the extracted CD     Track |   Start  |  Length  | Start sector | End sector    ---------------------------------------------------------        1  |  0:00.00 |  6:32.07 |         0    |    29406        2  |  6:32.07 |  3:34.18 |     29407    |    45474        3  | 10:06.25 |  3:41.67 |     45475    |    62116        4  | 13:48.17 |  3:54.18 |     62117    |    79684        5  | 17:42.35 |  3:11.12 |     79685    |    94021        6  | 20:53.47 |  3:58.53 |     94022    |   111924        7  | 24:52.25 |  3:40.55 |    111925    |   128479        8  | 28:33.05 |  3:46.55 |    128480    |   145484        9  | 32:19.60 |  3:36.60 |    145485    |   161744       10  | 35:56.45 |  3:50.42 |    161745    |   179036       11  | 39:47.12 |  3:52.05 |    179037    |   196441       12  | 43:39.17 |  3:26.05 |    196442    |   211896       13  | 47:05.22 |  3:47.55 |    211897    |   228976       14  | 50:53.02 |  4:30.48 |    228977    |   249274       15  | 55:23.50 |  4:18.00 |    249275    |   268624       16  | 59:41.50 |  4:41.12 |    268625    |   289711       17  | 64:22.62 |  5:01.15 |    289712    |   312301       18  | 69:24.02 |  3:46.38 |    312302    |   329289       19  | 73:10.40 |  6:23.40 |    329290    |   358054Range status and errorsSelected range     Filename C:\[1999] [KAZ-DH-2] Dream House Vol. 2\VA - Dream House Vol. 2 (1999).wav     Peak level 94.2 %     Extraction speed 8.0 X     Range quality 100.0 %     Test CRC D698DCB0     Copy CRC D698DCB0     Copy OKNo errors occurredAccurateRip summaryTrack  1  not present in databaseTrack  2  not present in databaseTrack  3  not present in databaseTrack  4  not present in databaseTrack  5  not present in databaseTrack  6  not present in databaseTrack  7  not present in databaseTrack  8  not present in databaseTrack  9  not present in databaseTrack 10  not present in databaseTrack 11  not present in databaseTrack 12  not present in databaseTrack 13  not present in databaseTrack 14  not present in databaseTrack 15  not present in databaseTrack 16  not present in databaseTrack 17  not present in databaseTrack 18  not present in databaseTrack 19  not present in databaseNone of the tracks are present in the AccurateRip databaseEnd of status report---- CUETools DB Plugin V2.1.6[CTDB TOCID: 3CiZIFEPVDNxp96XGDtbipdjuN0-] foundSubmit result: 3CiZIFEPVDNxp96XGDtbipdjuN0- has been confirmedTrack | CTDB Status  1   | (1/1) Accurately ripped  2   | (1/1) Accurately ripped  3   | (1/1) Accurately ripped  4   | (1/1) Accurately ripped  5   | (1/1) Accurately ripped  6   | (1/1) Accurately ripped  7   | (1/1) Accurately ripped  8   | (1/1) Accurately ripped  9   | (1/1) Accurately ripped 10   | (1/1) Accurately ripped 11   | (1/1) Accurately ripped 12   | (1/1) Accurately ripped 13   | (1/1) Accurately ripped 14   | (1/1) Accurately ripped 15   | (1/1) Accurately ripped 16   | (1/1) Accurately ripped 17   | (1/1) Accurately ripped 18   | (1/1) Accurately ripped 19   | (1/1) Accurately ripped==== Log checksum E29807C3684F9552ED63BA80C57F0D9F758E92F18E93EF7E2473C0D92650432C ====

Содержание индексной карты (.CUE)

REM GENRE "Eurodance, Trance"REM DATE 1999REM DISCID 1C12A613REM COMMENT "ripped by: MWZR"CATALOG 0000000000000PERFORMER "VA"TITLE "Dream House Vol. 2 (1999)"FILE "VA - Dream House Vol. 2 (1999).flac" WAVE  TRACK 01 AUDIO    TITLE "Blue [Da Ba Dee] (DJ Ponte Ice Pop Mix)"    PERFORMER "Eiffel 65"    FLAGS DCP    INDEX 01 00:00:00  TRACK 02 AUDIO    TITLE "Follow The Light"    PERFORMER "Bad Boys Blue"    FLAGS DCP    INDEX 01 06:32:07  TRACK 03 AUDIO    TITLE "Party (Don Esteban Remix Single)"    PERFORMER "Pinball feat. MC Miker G."    FLAGS DCP    INDEX 01 10:06:25  TRACK 04 AUDIO    TITLE "Sing It Back (Mousse T.'s Boot Edit)"    PERFORMER "Moloko"    FLAGS DCP    INDEX 01 13:48:17  TRACK 05 AUDIO    TITLE "Wrong Is (Radio Edit)"    PERFORMER "The Bronx"    FLAGS DCP    INDEX 01 17:42:35  TRACK 06 AUDIO    TITLE "Pump This Party (Single Mix)"    PERFORMER "Time Motion Project"    FLAGS DCP    INDEX 01 20:53:47  TRACK 07 AUDIO    TITLE "Genesis Chapter 1 (Radio Version)"    PERFORMER "Hitch Hiker & Jacques Dumondt"    FLAGS DCP    INDEX 01 24:52:25  TRACK 08 AUDIO    TITLE "Don't Go (Radio Mix)"    PERFORMER "DJ Pi vs. C.O.P. Project"    FLAGS DCP    INDEX 01 28:33:05  TRACK 09 AUDIO    TITLE "Body, Mind & Spirit (Short Version)"    PERFORMER "R.O.O.S."    FLAGS DCP    INDEX 01 32:19:60  TRACK 10 AUDIO    TITLE "Your Love (Video Mix)"    PERFORMER "Mark 'Oh vs. John Davies"    FLAGS DCP    INDEX 01 35:56:45  TRACK 11 AUDIO    TITLE "Deeper Love (Airplay Mix)"    PERFORMER "Love and Fate"    FLAGS DCP    INDEX 01 39:47:12  TRACK 12 AUDIO    TITLE "The Arrival (Single Cut)"    PERFORMER "P.F.M."    FLAGS DCP    INDEX 01 43:39:17  TRACK 13 AUDIO    TITLE "Aha-aha-aha?"    PERFORMER "Anton feat. DJ Otzi"    FLAGS DCP    INDEX 01 47:05:22  TRACK 14 AUDIO    TITLE "Another Day (Extended Club Mix Cut)"    PERFORMER "The Dome Project feat. Rachel"    FLAGS DCP    INDEX 01 50:53:02  TRACK 15 AUDIO    TITLE "Moving On (Club Dance Mix)"    PERFORMER "Dreamzone"    FLAGS DCP    INDEX 01 55:23:50  TRACK 16 AUDIO    TITLE "VLTJ (Dikkendoofs Goer Mix)"    PERFORMER "ATB feat. Toerfisk"    FLAGS DCP    INDEX 01 59:41:50  TRACK 17 AUDIO    TITLE "Waiting For Tonight (Hex's Momentous Club Mix Cut)"    PERFORMER "Jennifer Lopez"    FLAGS DCP    INDEX 01 64:22:62  TRACK 18 AUDIO    TITLE "Relax (Original Radio Mix)"    PERFORMER "RB 69"    FLAGS DCP    INDEX 01 69:24:02  TRACK 19 AUDIO    TITLE "Survivor (Nachtschicht)"    PERFORMER "Antonia"    FLAGS DCP    INDEX 01 73:10:40

Скриншот спектра частот

Для скачки контента: [Установить программу-клиент] и кликнуть по - СкачатьБезопасность: клиент проверен АВ Касперского

[asmlocator.ru].t585009.torrent 
Торрент: Зарегистрирован [ 2018-11-08 09:25 ] · 80117945484759A56624FE15B4FA11BF7C7C9A72

Скачать .torrent

Скачать

15 KB

Статус: проверено
Скачан: 0 раз
Размер: 733 MB
terms.php
[Профиль] [ЛС]
Показать сообщения:    
Ответить на тему

Текущее время: 12-Ноя 19:01

Часовой пояс: UTC ± 0



Вы не можете начинать темы
Вы не можете отвечать на сообщения
Вы не можете редактировать свои сообщения
Вы не можете удалять свои сообщения
Вы не можете голосовать в опросах
Вы не можете прикреплять файлы к сообщениям
Вы можете скачивать файлы