[TR24][OF] Hypp fractal - Reflexio - 2018 (Techno, IDM, Breaks)

Ответить на тему
Статистика раздачи
Размер:  272 MB   |    Зарегистрирован:  11 дней   |    Скачан:  0 раз

Полного источника не было: Никогда

 
   
 
 
Автор Сообщение

star21 ®

Пол: Женский

Стаж: 3 года

Сообщений: 552916

Откуда: Екатеринбург

Создавать темы 06-Ноя-2018 21:51

[Цитировать]

Hypp fractal / Reflexio Формат записи/Источник записи: [TR24][OF]
Наличие водяных знаков: Нет
Год издания/переиздания диска: 2018
Жанр: Techno, IDM, Breaks
Продолжительность: 0:24:45
Наличие сканов в содержимом раздачи: Нет
Источник (релизер): собственный рип
Контейнер: FLAC (*.flac)
Тип рипа: tracks
Разрядность: 24/44,1
Формат: PCM
Количество каналов: 2.0Треклист:
01. nullptr (7:16)
02. eyes (6:33)
03. reminiscence (4:15)
04. moonlight (6:41)

Лог проверки качества

foobar2000 1.3.8 / Замер динамического диапазона (DR) 1.1.1Дата отчёта:  2018-11-07 00:25:37--------------------------------------------------------------------------------Анализ:   Hypp fractal / Reflexio--------------------------------------------------------------------------------DR         Пики         RMS           Продолжительность трека--------------------------------------------------------------------------------DR7        0.00 дБ    -9.53 дБ      7:16 01-nullptrDR10       0.00 дБ   -11.70 дБ      6:33 02-eyesDR7        0.00 дБ    -9.82 дБ      4:15 03-reminiscenceDR8        0.00 дБ    -9.43 дБ      6:41 04-moonlight--------------------------------------------------------------------------------Количество треков: 4Реальные значения DR: DR8Частота:   44100 ГцКаналов:   2Разрядность:   24Битрейт:   1511 кбит/сКодек:   FLAC================================================================================

Скриншот спектра частот


Для скачки контента: [Установить программу-клиент] и кликнуть по - СкачатьБезопасность: клиент проверен АВ Касперского

[asmlocator.ru].t584730.torrent 
Торрент: Зарегистрирован [ 2018-11-06 21:50 ] · 4CF6205CC78C0A009FA8DB059A33901C057AAB53

Скачать .torrent

Скачать

11 KB

Статус: проверено
Скачан: 0 раз
Размер: 272 MB
terms.php
[Профиль] [ЛС]
Показать сообщения:    
Ответить на тему

Текущее время: 18-Ноя 02:42

Часовой пояс: UTC ± 0



Вы не можете начинать темы
Вы не можете отвечать на сообщения
Вы не можете редактировать свои сообщения
Вы не можете удалять свои сообщения
Вы не можете голосовать в опросах
Вы не можете прикреплять файлы к сообщениям
Вы можете скачивать файлы