Джеффри Зейг - Эриксоновский гипноз в краткосрочной терапии [Россия, CamRip]

Ответить на тему
Статистика раздачи
Размер:  16,14 GB   |    Зарегистрирован:  7 дней   |    Скачан:  0 раз
Сидов:  1  [  0 KB/s  ]   Подробная статистика пиров
 
   
 
 
Автор Сообщение

star21 ®

Пол: Женский

Стаж: 3 года

Сообщений: 552924

Откуда: Екатеринбург

Создавать темы 05-Ноя-2018 11:36

[Цитировать]

Джеффри Зейг - Эриксоновский гипноз в краткосрочной терапии Страна: Россия
Продолжительность: 34h 36min 38sec
Перевод: Не требуется
Язык: Русский
Русские субтитры: нет
Описание: Ведущий - Джеффри Зейг - доктор психологии, ученик Милтона Эриксона.
Профессор клинической психологии Университета Аризоны.
Автор и соавтор более 20 трудов по психотерапии, изданных и переведенных на 11 языков мира.:

Содержание курса

Диск 1:
- Уроки, которые дает нам гипноз;
- История М. Эриксона о "Грязном Герти";
- Милтон Эриксон и его работа;
- Гипноз как способ понимания мира. Взгляд Эриксона;
- Групповое наведение транса;
- Возрастная регрессия;
- Феноменологический подход в гипнозе;
- Невербальные компоненты гипноза. Демонстрация, комментарии;
- Создание встроенного смысла коммуникации.Диск 2:
- Техника диссоциации;
- Трюизмы и способы их использования;
- Установки на "да", "нет", "не знаю";
- Сравнение различных методов психотерапии;
- Особенности применения установок на "да", "нет", "не знаю" измени кавычки на " в меню и титрах;
- Демонстрация использования языковых паттернов гипноза;
- Наведение транса какиндивидуальная подстройка к личности и ситуации.Диск 3:
- Работа с языком гипноза;
- Косвенные внушения;
- Упражнение на формирование языковых конструктов;
- Восемь способов "упаковки подарков". Демонстрация;
- Заметки о Милтоне Эриксоне;
- Модель традиционного гипноза;
- Эриксоновская модель "ARE". Демонстрация.Диск 4:
- Категории восприятия;
- Развитие паттерноввзаимодействия;
- Упражнение "беззвучная история";
- Учет индивидуальных особенностей пациентов вгипнозе;
- Развитие наблюдательности терапевта. Упражнение.Диск 5:
- Упражнение на выявление ценностей пациента: "крючки";
- Метамодель интервенции;
- Демонстрацияиндивидуальной подстройки: "левитация обеих рук".Диск 6:
- Демонстрация использования фантазии пациента;
- Наведение транса через опыт раннего научения.Демонстрация;
- Метафора входа в комнату длянаведения транса;
- Упражнение "расширение возможностей терапевта";
- Ответы на вопросы.Диск 7:
- Развитие терапевта;
- Способность к утилизации;
- Утилизирующее наведение транса;
- Моделирование "формулы успеха";
- Техника замешательства.Диск 8:
- Гипнотическая амнезия;
- Искусство созданияэмоционального влияния;
- Восстановление ресурсовпациента;
- Обучение через переживание;
- Тренировка навыка;
- Случай из практики: терапия больного шизофренией;
- Вопросы о Милтоне Эриксоне.Диск 9:
- "Упаковка подарков";
- Основные способы интервенций;
- Разбор клинического случая;
- Супервизия;
- Работа с сопротивлением.Диск 10:
- Техника "разбрасывания". Демонстрация;
- Индивидуальная подстройка. Тренинг индивидуальной подстройки;
- Практика развития навыков терапевта.Диск 11:
- Практика развития навыков терапевта (продолжение);
- Развитие точности восприятия терапевта;
- Тренинг слуховой концентрации.Диск 12:
- Демонстрация работы с "внутренним стержнем";
- Гипнотическая анестезия;
- Ответы на вопросы.Диск 13:
- Демонстрация работы с болью;
- Самогипноз;
- Неявные закономерности воздействия в гипнозе. Демонстрация;
- Работа с вредными привычками

Отчет MediaInfo

General
Complete name : F:\Джеффри Зейг - Эриксоновский гипноз в краткосрочной терапии\1.3 Милтон Эриксон и его работа.avi
Format : AVI
Format/Info : Audio Video Interleave
File size : 25.5 MiB
Duration : 3 min 5 s
Overall bit rate mode : Variable
Overall bit rate : 1 155 kb/s
Writing application : Lavf55.12.100Video
ID : 1
Format : AVC
Format/Info : Advanced Video Codec
Format profile : Main@L3
Format settings : CABAC / 2 Ref Frames
Format settings, CABAC : Yes
Format settings, ReFrames : 2 frames
Format settings, GOP : M=1, N=25
Codec ID : H264
Duration : 3 min 5 s
Bit rate : 1 014 kb/s
Width : 720 pixels
Height : 576 pixels
Display aspect ratio : 4:3
Frame rate mode : Variable
Frame rate : 25.000 FPS
Standard : PAL
Color space : YUV
Chroma subsampling : 4:2:0
Bit depth : 8 bits
Scan type : Progressive
Bits/(Pixel*Frame) : 0.098
Stream size : 22.4 MiB (88%)Audio
ID : 0
Format : AAC
Format/Info : Advanced Audio Codec
Format version : Version 2
Format profile : LC
Muxing mode : ADTS
Codec ID : FF
Duration : 3 min 5 s
Bit rate mode : Variable
Bit rate : 128 kb/s
Channel(s) : 2 channels
Channel positions : Front: L R
Sampling rate : 44.1 kHz
Frame rate : 43.066 FPS (1024 SPF)
Compression mode : Lossy
Stream size : 2.83 MiB (11%)
Alignment : Aligned on interleaves
Interleave, duration : 40 ms (1.00 video frame)
Качество видео: CamRip
Формат видео: AVI
Видео: H.264/AVC 720x576 (4:3) 25fps
Аудио: MP3 44100Hz stereo 256kbps

Скриншоты

Для скачки контента: [Установить программу-клиент] и кликнуть по - СкачатьБезопасность: клиент проверен АВ Касперского

[asmlocator.ru].t584341.torrent 
Торрент: Зарегистрирован [ 2018-11-05 11:35 ] · 0C4EA4C5CFD3CE9EB1A61F66364EDF9704732051

Скачать .torrent

Скачать

168 KB

Статус: проверено
Скачан: 0 раз
Размер: 16,14 GB
terms.php
[Профиль] [ЛС]
Показать сообщения:    
Ответить на тему

Текущее время: 12-Ноя 18:59

Часовой пояс: UTC ± 0



Вы не можете начинать темы
Вы не можете отвечать на сообщения
Вы не можете редактировать свои сообщения
Вы не можете удалять свои сообщения
Вы не можете голосовать в опросах
Вы не можете прикреплять файлы к сообщениям
Вы можете скачивать файлы