(NewAge) [CD] Zhang Fu-quan - Tea Travel - 1994, FLAC (image+.cue), lossless

Ответить на тему
Статистика раздачи
Размер:  327 MB   |    Зарегистрирован:  14 дней   |    Скачан:  0 раз

Полного источника не было: Никогда

 
   
 
 
Автор Сообщение

star21 ®

Пол: Женский

Стаж: 3 года

Сообщений: 552916

Откуда: Екатеринбург

Создавать темы 03-Ноя-2018 22:40

[Цитировать]

Zhang Fu-quan / Tea Travel Жанр: NewAge
Носитель: CD
Страна-производитель диска (релиза): China
Год издания: 1994
Издатель (лейбл): LandyStar
Номер по каталогу: NG 1824
Страна исполнителя (группы): China
Аудиокодек: FLAC (*.flac)
Тип рипа: image+.cue
Битрейт аудио: lossless
Продолжительность: 00:59:50
Источник (релизер): PELMEN_METALLYUGA
Наличие сканов в содержимом раздачи: да
Треклист:
01 - Cloudfog Tea
02 - The Buddha's Tea
03 - San-p'aoTai
04 - Mao-chien Tea
05 - Paochung Tea
06 - Uigur Green Tea
07 - Mao-feng Tea
08 - Omei Flower Tea

Лог создания рипа

CUERipper v2.1.5 Copyright (C) 2008-13 Grigory ChudovEAC extraction logfile from 3. November 2018, 23:09Zhang Fu-quan / Tea TravelUsed drive  : hp DVD RW AD-7760H   Adapter: 1  ID: 0Read mode               : BurstUtilize accurate stream : YesDefeat audio cache      : YesMake use of C2 pointers : NoRead offset correction                      : 48Overread into Lead-In and Lead-Out          : NoFill up missing offset samples with silence : YesDelete leading and trailing silent blocks   : NoNull samples used in CRC calculations       : YesUsed interface                              : Native Win32 interface for Win NT & 2000Used output format : Internal WAV RoutinesSample format      : 44.100 Hz; 16 Bit; StereoTOC of the extracted CD     Track |   Start  |  Length  | Start sector | End sector    ---------------------------------------------------------        1  |  0:00.00 |  8:18.62 |         0    |    37411        2  |  8:18.62 |  7:06.00 |     37412    |    69361        3  | 15:24.62 |  7:49.63 |     69362    |   104599        4  | 23:14.50 |  6:26.50 |    104600    |   133599        5  | 29:41.25 |  7:27.50 |    133600    |   167174        6  | 37:09.00 |  7:05.00 |    167175    |   199049        7  | 44:14.00 |  8:34.37 |    199050    |   237636        8  | 52:48.37 |  7:01.38 |    237637    |   269249Range status and errorsSelected range     Filename C:\Users\user\Music\Zhang Fu-quan\1994 - Tea Travel\Zhang Fu-quan - Tea Travel.wav     Peak level 81.3 %     Range quality 100.0 %     Copy CRC 393E8213     Copy OKNo errors occurredAccurateRip summaryTrack  1  cannot be verified as accurate (confidence 2)  [289415BF], AccurateRip returned [B0B5E4FF]Track  2  cannot be verified as accurate (confidence 2)  [8CD27DE4], AccurateRip returned [3DB65202]Track  3  cannot be verified as accurate (confidence 2)  [A8C77733], AccurateRip returned [1A1E0D04]Track  4  cannot be verified as accurate (confidence 2)  [50F4F9C0], AccurateRip returned [1C92D7AF]Track  5  cannot be verified as accurate (confidence 2)  [DF7518B2], AccurateRip returned [7B9F45DD]Track  6  cannot be verified as accurate (confidence 2)  [7E9FB4D7], AccurateRip returned [82A8FC2E]Track  7  accurately ripped (confidence 1)  [1E03964D]Track  8  accurately ripped (confidence 1)  [D874EDA0] 2 track(s) accurately rippedSome tracks could not be verified as accurateEnd of status report

Содержание индексной карты (.CUE)

REM DISCID 640E0608PERFORMER "Zhang Fu-quan"TITLE "Tea Travel"REM DATE 1994REM DISCNUMBER 1REM TOTALDISCS 1REM COMMENT "CUERipper v2.1.5 Copyright (C) 2008-13 Grigory Chudov"FILE "Zhang Fu-quan - Tea Travel.flac" WAVE  TRACK 01 AUDIO    FLAGS DCP    PERFORMER "Zhang Fu-quan"    TITLE "Cloud-fog Tea, in Mt. Lu"    INDEX 01 00:00:00  TRACK 02 AUDIO    FLAGS DCP    PERFORMER "Zhang Fu-quan"    TITLE "The Buddha's Tea, in Mt. Puto"    INDEX 01 08:18:62  TRACK 03 AUDIO    FLAGS DCP    PERFORMER "Zhang Fu-quan"    TITLE "San-p'ao Tai Tea, in Kansu"    INDEX 01 15:24:62  TRACK 04 AUDIO    FLAGS DCP    PERFORMER "Zhang Fu-quan"    TITLE "Mao-chien Tea, in Hsinyang"    INDEX 01 23:14:50  TRACK 05 AUDIO    FLAGS DCP    PERFORMER "Zhang Fu-quan"    TITLE "Wrapped Tea, in Taiwan"    INDEX 01 29:41:25  TRACK 06 AUDIO    FLAGS DCP    PERFORMER "Zhang Fu-quan"    TITLE "Uigur Green Tea, in Sinkiang"    INDEX 01 37:09:00  TRACK 07 AUDIO    FLAGS DCP    PERFORMER "Zhang Fu-quan"    TITLE "Mao-feng Tea, in Hwang Shan"    INDEX 01 44:14:00  TRACK 08 AUDIO    FLAGS DCP    PERFORMER "Zhang Fu-quan"    TITLE "Omei Flower Tea, in Mt. Omei"    INDEX 01 52:48:37

Лог проверки качества

foobar2000 1.4 / Dynamic Range Meter 1.1.1log date: 2018-11-03 23:30:40--------------------------------------------------------------------------------Analyzed: Zhang Fu-quan / Tea Travel--------------------------------------------------------------------------------DR         Peak         RMS     Duration Track--------------------------------------------------------------------------------DR11      -4.31 dB   -18.58 dB      8:19 01-Cloud-fog Tea, in Mt. LuDR10      -3.91 dB   -17.84 dB      7:06 02-The Buddha's Tea, in Mt. PutoDR12      -2.04 dB   -18.48 dB      7:50 03-San-p'ao Tai Tea, in KansuDR13      -2.99 dB   -20.64 dB      6:27 04-Mao-chien Tea, in HsinyangDR13      -1.79 dB   -19.97 dB      7:28 05-Wrapped Tea, in TaiwanDR11      -4.11 dB   -18.48 dB      7:05 06-Uigur Green Tea, in SinkiangDR11      -6.62 dB   -21.23 dB      8:34 07-Mao-feng Tea, in Hwang ShanDR13      -2.46 dB   -21.03 dB      7:02 08-Omei Flower Tea, in Mt. Omei--------------------------------------------------------------------------------Number of tracks:  8Official DR value: DR12Samplerate:        44100 HzChannels:          2Bits per sample:   16Bitrate:           752 kbpsCodec:             FLAC================================================================================

Скриншот спектра частот

Для скачки контента: [Установить программу-клиент] и кликнуть по - СкачатьБезопасность: клиент проверен АВ Касперского

[asmlocator.ru].t583748.torrent 
Торрент: Зарегистрирован [ 2018-11-03 22:40 ] · 3B1099A704DC25D1FE415B8577ED714379B06FE4

Скачать .torrent

Скачать

14 KB

Статус: проверено
Скачан: 0 раз
Размер: 327 MB
terms.php
[Профиль] [ЛС]
Показать сообщения:    
Ответить на тему

Текущее время: 18-Ноя 02:42

Часовой пояс: UTC ± 0



Вы не можете начинать темы
Вы не можете отвечать на сообщения
Вы не можете редактировать свои сообщения
Вы не можете удалять свои сообщения
Вы не можете голосовать в опросах
Вы не можете прикреплять файлы к сообщениям
Вы можете скачивать файлы