Семейная тайна / Comme des voleurs (à l\'est) / Stealth (Лионель Байер / Lionel Baier) [2006, Швейцария, Франция, драма, DVD5] AVO (Сергей Кузнецов) + Sub Eng + Original Fra

Ответить на тему
Статистика раздачи
Размер:  3,29 GB   |    Зарегистрирован:  11 месяцев 7 дней   |    Скачан:  0 раз

Полного источника не было: Никогда

 
   
 
 
Автор Сообщение

star21 ®

Пол: Женский

Стаж: 3 года 10 месяцев

Сообщений: 551989

Откуда: Екатеринбург

Создавать темы 10-Окт-2018 19:50

[Цитировать]

Семейная тайна / Comme des voleurs (à l'est) / Stealth Страна: Швейцария, Франция
Студия: Saga Production, Ciné Manufacture
Жанр: драма
Год выпуска: 2006
Продолжительность: 01:44:20Перевод: Авторский (одноголосый закадровый) Сергей Кузнецов
Субтитры: английские
Оригинальная аудиодорожка: французскийРежиссер: Лионель Байер / Lionel BaierВ ролях: Наташа Кучумов, Лионель Байер, Алиция Бахледа-Цурусь, Стефан Рентзник, Анн-Лиз Тобаги, Михал Рудницки, Бернабе Рико, Лех Дыблик, Барбара Дембинска, Моника ЯрошиньскаОписание: Лионель, живет в Лозанне в Швейцарии. Его семья не возражает против того, что он гей, и полностью принимает его бойфренда Сержа в свою семью. У него хорошая работа на местной радиостанции. Однажды под Рождество он узнает, что его предки — родом из Польши. Он начинает живо интересоваться всем польским, и когда встречает одну девушку-иммигрантку из Польши, решает, что его долг — жениться на ней, чтобы ее не депортировали из страны. Но чтобы это сделать, ему придется расстаться со своим бойфрендом. Его сестра Люси решает поехать с ним в Польшу, чтобы отвлечь его от этой безумной затеи с женитьбой, и там он встречает нового парнишку, Стэна, они влюбляются друг в друга, и Лионель наконец понимает, что не там его дом, откуда родом его предки, а там, где его сердце.Сценарий Лионеля Байера, при участии Марины де ВанБонусы: нетМеню: статичное, неозвученное, на английском языкеkinopoisk Сэмпл: http://multi-up.com/912088Тип релиза: DVD5
Контейнер: DVD-VideoВидео: NTSC 4:3 (720x480(0.386)) MPEG Video, 29,970 кадр/сек, 4000 Кбит/сек
Аудио: Russian (Dolby AC3, 2ch) 192 Кбит/сек, 48,0 КГц
Аудио 2: Francais (Dolby AC3, 2ch) 192 Кбит/сек, 48,0 КГц
Формат субтитров: prerendered (DVD/IDX+SUB)

Доп. информация

Издание artvideodvd

DVDInfo

Title:
Size: 3.29 Gb ( 3 450 762 KBytes ) - DVD-5
Enabled regions: 1, 2, 3, 4, 5, 6, 7, 8VTS_01 :
Play Length: 01:44:20
Video: NTSC 4:3 (720x480) VBR
Audio:
Russian (Dolby AC3, 2 ch)
Francais (Dolby AC3, 2 ch)
Subtitles:
EnglishMenu Video:
NTSC 4:3 (720x480) VBR
Menu Audio:
Not specified (Dolby AC3, 2 ch)
Menu Subtitles:
Not specified
Menu Russian Language Unit :
Root Menu

MediaInfo

General
Complete name : D:\odds\Семейная тайна\VIDEO_TS\VTS_01_1.VOB
Format : MPEG-PS
File size : 1 024 MiB
Duration : 31mn 52s
Overall bit rate : 4 490 KbpsVideo
ID : 224 (0xE0)
Format : MPEG Video
Format version : Version 2
Format profile : Main@Main
Format settings, BVOP : Yes
Format settings, Matrix : Default
Format settings, GOP : M=3, N=15
Duration : 31mn 52s
Bit rate mode : Constant
Bit rate : 4 000 Kbps
Width : 720 pixels
Height : 480 pixels
Display aspect ratio : 4:3
Frame rate : 29.970 fps
Standard : NTSC
Color space : YUV
Chroma subsampling : 4:2:0
Bit depth : 8 bits
Scan type : Interlaced
Scan order : Top Field First
Bits/(Pixel*Frame) : 0.386
Stream size : 916 MiB (89%)Audio #1
ID : 128 (0x80)
Format : AC-3
Format/Info : Audio Coding 3
Mode extension : CM (complete main)
Duration : 31mn 52s
Bit rate mode : Constant
Bit rate : 192 Kbps
Channel(s) : 2 channels
Channel positions : Front: L R
Sampling rate : 48.0 KHz
Video delay : -66ms
Stream size : 43.8 MiB (4%)Audio #2
ID : 129 (0x81)
Format : AC-3
Format/Info : Audio Coding 3
Mode extension : CM (complete main)
Duration : 31mn 52s
Bit rate mode : Constant
Bit rate : 192 Kbps
Channel(s) : 2 channels
Channel positions : Front: L R
Sampling rate : 48.0 KHz
Video delay : -66ms
Stream size : 43.8 MiB (4%)Menu

Скриншоты меню

Скриншоты

Постер


Чтобы скачать этот контент, Вам необходимо:
1. Скачать и установить торрент-клиент [клик для Windows], (для мобильного найдите на Play Маркет).
2. Кликнуть по [Скачать]


Внимание.
Если проверка ВЫ НЕ РОБОТ - не работает, значит Вы используете устаревший браузер.
Установите актуальный браузер и повторно кликните по [Скачать]
Безопасность: торрент-клиент разрешён АВ Касперского.

[asmlocator.ru].t575986.torrent 
Торрент: Зарегистрирован [ 2018-10-10 19:50 ] · 58EF04841DF00991F816DC8168C67CB7614D91A5

Скачать .torrent

Скачать

17 KB

Статус: проверено
Скачан: 0 раз
Размер: 3,29 GB
terms.php
[Профиль] [ЛС]
Показать сообщения:    
Ответить на тему

Текущее время: 18-Сен 02:06

Часовой пояс: UTC ± 0



Вы не можете начинать темы
Вы не можете отвечать на сообщения
Вы не можете редактировать свои сообщения
Вы не можете удалять свои сообщения
Вы не можете голосовать в опросах
Вы не можете прикреплять файлы к сообщениям
Вы можете скачивать файлы
Верим фактам, а не вранью Путина! Факт, что Правительство ведёт Россию к истреблению.
Так как численность населения падает, даже не смотря на приток эмигрантов!
Русская нация вымирает и вырождается, смешиваясь с эмигрантами!
Факт, что военных и граждан предприятий заставляют голосовать за партию Единая Россия и Путина
ПОД СТРАХОМ УВОЛЬНЕНИЯ!
Нам не нужно Правительство, блокирующее личную жизнь, интернет, нарушающее сохранность данных.
Все эти действия финансируются за счёт народа!