[TR24][SM][OF][FM] Веном / Venom (by Ludwig Goransson) - 2018 (Score)

Reply to topic
DL-List and Torrent activity
Size:  527 MB   |    Registered:  10 months 13 days   |    Completed:  0 times

Seeder not seen: 5 months 27 days

 
   
 
 
Author Message

star21 ®

Gender: Female

Longevity: 3 years 9 months

Posts: 551989

Location: Екатеринбург

Post 09-Oct-2018 08:15

[Quote]

Ludwig Goransson / Веном / Venom Формат записи/Источник записи: [TR24][SM][OF][FM]
Наличие водяных знаков: Нет
Год издания/переиздания диска: 2018
Жанр: Score
Продолжительность: 00:55:30
Наличие сканов в содержимом раздачи: Только обложка альбома
Источник (релизер): qobuz
Контейнер: FLAC (*.flac)
Тип рипа: tracks
Разрядность: 24/44
Количество каналов: 2.0
Треклист:
1. Space Exploration (4:24)
2. Symbiotes Arrive (2:03)
3. First Contact (3:30)
4. Eddie’s Blues (4:51)
5. Run, Eddie, Run (1:48)
6. What’s Wrong with Me (2:33)
7. Panic at the Bistro (1:24)
8. Humans… Such Poor Design (2:56)
9. Self Defense (3:38)
10. Pedal To The Metal (3:50)
11. Eyes, Lungs, Pancreas (2:46)
12. You Want Up? (1:41)
13. Venom Rampage (3:03)
14. Annie, I’m Scared (1:48)
15. Parasite (2:58)
16. Unexpected Ally (0:51)
17. Battle on the Launch Pad (8:18)
18. You Belong With Us (3:09)

foo_dr

foobar2000 1.3.16 / Dynamic Range Meter 1.1.1log date: 2018-10-08 13:13:18--------------------------------------------------------------------------------Analyzed: Ludwig Goransson / Venom (Original Motion Picture Soundtrack)--------------------------------------------------------------------------------DR         Peak         RMS     Duration Track--------------------------------------------------------------------------------DR8       -0.20 dB   -13.36 dB      4:24 01-Space ExplorationDR9       -0.20 dB   -15.19 dB      2:03 02-Symbiotes ArriveDR9       -0.10 dB   -15.24 dB      3:30 03-First ContactDR9       -0.20 dB   -13.49 dB      4:50 04-Eddie's BluesDR8       -0.20 dB   -10.75 dB      1:48 05-Run, Eddie, RunDR9       -0.10 dB   -15.11 dB      2:33 06-What's Wrong with MeDR8       -0.20 dB   -13.26 dB      1:23 07-Panic at the BistroDR9        0.00 dB   -14.96 dB      2:56 08-Humans... Such Poor DesignDR9       -0.20 dB   -14.26 dB      3:38 09-Self DefenseDR9       -0.20 dB   -10.94 dB      3:50 10-Pedal To The MetalDR8       -0.13 dB   -12.14 dB      2:46 11-Eyes, Lungs, PancreasDR9       -0.20 dB   -14.54 dB      1:41 12-You Want Up?DR9       -0.20 dB   -12.49 dB      3:03 13-Venom RampageDR10      -0.27 dB   -24.57 dB      1:48 14-Annie, I'm ScaredDR9       -0.20 dB   -14.85 dB      2:58 15-ParasiteDR7       -0.20 dB   -10.86 dB      0:51 16-Unexpected AllyDR8        0.00 dB   -12.78 dB      8:18 17-Battle on the Launch PadDR12      -0.20 dB   -18.80 dB      3:09 18-You Belong With Us--------------------------------------------------------------------------------Number of tracks:  18Official DR value: DR9Samplerate:        44100 HzChannels:          2Bits per sample:   24Bitrate:           1222 kbpsCodec:             FLAC================================================================================

To download the content you need:
1. Download and install torrent client [for Windows] or for mobile system
2. Click on [Download]
Attention.
If the test YOU are NOT a ROBOT - does not work, then You are using an outdated browser.
Install the current browser and click on [Download]
Security: torrent client is allowed by Kaspersky.

[asmlocator.ru].t575550.torrent 
Torrent: Registered [ 2018-10-09 08:15 ] · B83B4B28485837B08765C4B6B5D0BA86A62CB336

Download .torrent

Download

12 KB

Status: checked
Completed: 0 times
Size: 527 MB
terms.php
[Profile] [PM]
Display posts:    
Reply to topic

Current time is: 22-Aug 08:20

All times are UTC ± 0



You cannot post new topics in this forum
You cannot reply to topics in this forum
You cannot edit your posts in this forum
You cannot delete your posts in this forum
You cannot vote in polls in this forum
You cannot attach files in this forum
You can download files in this forum