(Rock) [CDS] aiko - ストロー - 2018, WavPack (image+.cue), lossless

Ответить на тему
Статистика раздачи
Размер:  193 MB   |    Зарегистрирован:  1 месяц 14 дней   |    Скачан:  0 раз

Полного источника не было: Никогда

 
   
 
 
Автор Сообщение

star21 ®

Пол: Женский

Стаж: 3 года

Сообщений: 552917

Откуда: Екатеринбург

Создавать темы 02-Окт-2018 15:10

[Цитировать]

aiko / ストロー Жанр: Rock
Носитель: CDS
Страна-производитель диска (релиза): Япония
Год издания: 2018
Издатель (лейбл): Pony Canyon
Номер по каталогу: PCCA-15038
Страна исполнителя (группы): Япония
Аудиокодек: WavPack (*.wv)
Тип рипа: image+.cue
Битрейт аудио: lossless
Продолжительность: 00:20:53
Источник (релизер): SHI
Наличие сканов в содержимом раздачи: да
Треклист:
01 ストロー
02 雨フラシ
03 夜の風邪
04 ストロー(instrumental)

Лог создания рипа

Exact Audio Copy V1.3 from 2. September 2016EAC extraction logfile from 2. October 2018, 13:23aiko / ストローUsed drive  : TSSTcorpBDDVDW SE-506BB   Adapter: 0  ID: 0Read mode               : SecureUtilize accurate stream : YesDefeat audio cache      : YesMake use of C2 pointers : NoRead offset correction                      : 6Overread into Lead-In and Lead-Out          : NoFill up missing offset samples with silence : YesDelete leading and trailing silent blocks   : NoNull samples used in CRC calculations       : YesUsed interface                              : Installed external ASPI interfaceUsed output format              : User Defined EncoderSelected bitrate                : 768 kBit/sQuality                         : HighAdd ID3 tag                     : NoCommand line compressor         : C:\Misc\WavPack\wavpack.exeAdditional command line options : -h %source%TOC of the extracted CD     Track |   Start  |  Length  | Start sector | End sector    ---------------------------------------------------------        1  |  0:00.00 |  4:55.70 |         0    |    22194        2  |  4:55.70 |  5:30.45 |     22195    |    46989        3  | 10:26.40 |  5:36.04 |     46990    |    72193        4  | 16:02.44 |  4:50.47 |     72194    |    93990Range status and errorsSelected range     Filename C:\Torrents\aiko - ストロー\aiko - ストロー.wav     Peak level 98.7 %     Extraction speed 1.5 X     Range quality 100.0 %     Test CRC E95B0130     Copy CRC E95B0130     Copy OKNo errors occurredAccurateRip summaryTrack  1  accurately ripped (confidence 4)  [9484FD76]  (AR v2)Track  2  accurately ripped (confidence 3)  [F4068098]  (AR v2)Track  3  accurately ripped (confidence 3)  [0847A249]  (AR v2)Track  4  accurately ripped (confidence 2)  [74476991]  (AR v2)All tracks accurately rippedEnd of status report---- CUETools DB Plugin V2.1.6[CTDB TOCID: 5ccwfCR_YAHsllehMvBqPPEIepA-] foundSubmit result: 5ccwfCR_YAHsllehMvBqPPEIepA- has been confirmedTrack | CTDB Status  1   | (71/71) Accurately ripped  2   | (71/71) Accurately ripped  3   | (71/71) Accurately ripped  4   | (71/71) Accurately ripped==== Log checksum AFF2C281155045EC1C6CFE51098306B661A3A4D513760649FE608ED396E020E6 ====

Для скачки контента: [Установить программу-клиент] и кликнуть по - СкачатьБезопасность: клиент проверен АВ Касперского

[asmlocator.ru].t573478.torrent 
Торрент: Зарегистрирован [ 2018-10-02 15:10 ] · 70D262C900CE1A251446F28A78C8137F44EC6229

Скачать .torrent

Скачать

16 KB

Статус: проверено
Скачан: 0 раз
Размер: 193 MB
terms.php
[Профиль] [ЛС]
Показать сообщения:    
Ответить на тему

Текущее время: 16-Ноя 19:05

Часовой пояс: UTC ± 0



Вы не можете начинать темы
Вы не можете отвечать на сообщения
Вы не можете редактировать свои сообщения
Вы не можете удалять свои сообщения
Вы не можете голосовать в опросах
Вы не можете прикреплять файлы к сообщениям
Вы можете скачивать файлы