Москва на высоте (Элла Тухарели) [2018, Россия, Документальный, HDTVRip]

Reply to topic
DL-List and Torrent activity
Size:  732 MB   |    Registered:  11 months 3 days   |    Completed:  0 times

Seeder not seen: Never

 
   
 
 
Author Message

star21 ®

Gender: Female

Longevity: 3 years 9 months

Posts: 551989

Location: Екатеринбург

Post 18-Sep-2018 12:30

[Quote]

Москва на высоте Страна: Россия
Студия: ВГТРК, Телеканал "Россия", Студия "Авторская Программа Аркадия Мамонтова"
Жанр: Документальный
Год выпуска: 2018
Продолжительность: 00:44:29
Режиссёр: Элла Тухарели
Ведущий: Аркадий МамонтовОписание: Фильм Аркадия Мамонтова. Небоскребы в современном градостроительстве – это символ успеха, финансовой стабильности и современного развития страны. Все мощные экономические державы имеют свои так называемые Сити – центры, где на небольшой территории стоят устремленные вверх здания. Относительно недавно такой район появился и в Москве. Москва-Сити разрушил шаблон малоэтажной застройки центра города, принятый почти 100 лет назад. У нас появился свой Манхэттен. Зачем в Москве нужен такой район? В чем его смысл, в чем философия жизни людей, которые выбирают местом своего обитания эти огромные башни из стекла и бетона? Как функционирует этот "город в городе"? В чем особенность наших небоскребов и почему Москва-Сити вызывает жаркие дискуссии о своем существовании?..Доп. информация:
Автор релиза -
Источник для рипа - HDTV 1080i TS - моя запись с канала Россия-1 HDСэмпл: http://multi-up.com/1207646 Рекламы нет!Качество видео: HDTVRip
Формат видео: AVIВидео: XviD, 720x400 (16:9), 25.000 fps, 2100 kbps, 0.292 bit/pixel
Аудио: Русский AC3, 48000 Гц, 2ch, 192 kbps

MediaInfo

ОбщееПолное имя                               : D:\Москва.на.высоте.2018.HDTVRip-ylnian.aviФормат                                   : AVIФормат/Информация                        : Audio Video InterleaveРазмер файла                             : 732 МбайтПродолжительность                        : 44 м. 29 с.Общий поток                              : 2301 Кбит/секПрограмма кодирования                    : VirtualDubMod 1.5.10.3 | www.virtualdub-fr.org || (build 2550/release)Библиотека кодирования                   : VirtualDubMod build 2550/releaseВидеоИдентификатор                            : 0Формат                                   : MPEG-4 VisualПрофиль формата                          : Advanced Simple@L5Настройки формата                        : BVOP1 / Custom MatrixПараметр BVOP формата                    : 1Параметр QPel формата                    : НетПараметр GMC формата                     : Без точки переходаПараметр матрицы формата                 : ВыборочнаяИдентификатор кодека                     : XVIDИдентификатор кодека/Подсказка           : XviDПродолжительность                        : 44 м. 29 с.Битрейт                                  : 2100 Кбит/секШирина                                   : 720 пикселейВысота                                   : 400 пикселейСоотношение сторон                       : 16:9Частота кадров                           : 25,000 кадров/секЦветовое пространство                    : YUVСубдискретизация насыщенности            : 4:2:0Битовая глубина                          : 8 битТип развёртки                            : ПрогрессивнаяМетод сжатия                             : С потерямиБит/(Пиксели*Кадры)                      : 0.292Размер потока                            : 668 Мбайт (91%)Библиотека кодирования                   : XviD 67АудиоИдентификатор                            : 1Формат                                   : AC-3Формат/Информация                        : Audio Coding 3Идентификатор кодека                     : 2000Продолжительность                        : 44 м. 29 с.Вид битрейта                             : ПостоянныйБитрейт                                  : 192 Кбит/секКаналы                                   : 2 каналаРасположение каналов                     : Front: L RЧастота                                  : 48,0 КГцЧастота кадров                           : 31,250 кадров/сек (1536 SPF)Битовая глубина                          : 16 битМетод сжатия                             : С потерямиРазмер потока                            : 61,1 Мбайт (8%)Выравнивание                             : Разделение по промежуткамПродолжительность промежутка             : 40  мс. (1,00 видеокадр)Время предзагрузки промежутка            : 500  мс.ServiceKind/String                       : Complete Main

To download the content you need:
1. Download and install torrent client [for Windows] or for mobile system
2. Click on [Download]
Attention.
If the test YOU are NOT a ROBOT - does not work, then You are using an outdated browser.
Install the current browser and click on [Download]
Security: torrent client is allowed by Kaspersky.

[asmlocator.ru].t568636.torrent 
Torrent: Registered [ 2018-09-18 12:30 ] · 0766E2E2048427D6D9B6C8E1349322DEA4A490CB

Download .torrent

Download

15 KB

Status: checked
Completed: 0 times
Size: 732 MB
terms.php
[Profile] [PM]
Display posts:    
Reply to topic

Current time is: 22-Aug 08:21

All times are UTC ± 0



You cannot post new topics in this forum
You cannot reply to topics in this forum
You cannot edit your posts in this forum
You cannot delete your posts in this forum
You cannot vote in polls in this forum
You cannot attach files in this forum
You can download files in this forum