Москва на высоте (Элла Тухарели) [2018, Россия, Документальный, HDTVRip]

Ответить на тему
Статистика раздачи
Размер:  732 MB   |    Зарегистрирован:  1 год 2 месяца   |    Скачан:  1 раз

Полного источника не было: 28 минут

 
   
 
 
Автор Сообщение

star21 ®

Пол: Женский

Стаж: 4 года 1 месяц

Сообщений: 551946

Откуда: Екатеринбург

Создавать темы 18-Сен-2018 12:30

[Цитировать]

Москва на высоте Страна: Россия
Студия: ВГТРК, Телеканал "Россия", Студия "Авторская Программа Аркадия Мамонтова"
Жанр: Документальный
Год выпуска: 2018
Продолжительность: 00:44:29
Режиссёр: Элла Тухарели
Ведущий: Аркадий МамонтовОписание: Фильм Аркадия Мамонтова. Небоскребы в современном градостроительстве – это символ успеха, финансовой стабильности и современного развития страны. Все мощные экономические державы имеют свои так называемые Сити – центры, где на небольшой территории стоят устремленные вверх здания. Относительно недавно такой район появился и в Москве. Москва-Сити разрушил шаблон малоэтажной застройки центра города, принятый почти 100 лет назад. У нас появился свой Манхэттен. Зачем в Москве нужен такой район? В чем его смысл, в чем философия жизни людей, которые выбирают местом своего обитания эти огромные башни из стекла и бетона? Как функционирует этот "город в городе"? В чем особенность наших небоскребов и почему Москва-Сити вызывает жаркие дискуссии о своем существовании?..Доп. информация:
Автор релиза -
Источник для рипа - HDTV 1080i TS - моя запись с канала Россия-1 HDСэмпл: http://multi-up.com/1207646 Рекламы нет!Качество видео: HDTVRip
Формат видео: AVIВидео: XviD, 720x400 (16:9), 25.000 fps, 2100 kbps, 0.292 bit/pixel
Аудио: Русский AC3, 48000 Гц, 2ch, 192 kbps

MediaInfo

ОбщееПолное имя                               : D:\Москва.на.высоте.2018.HDTVRip-ylnian.aviФормат                                   : AVIФормат/Информация                        : Audio Video InterleaveРазмер файла                             : 732 МбайтПродолжительность                        : 44 м. 29 с.Общий поток                              : 2301 Кбит/секПрограмма кодирования                    : VirtualDubMod 1.5.10.3 | www.virtualdub-fr.org || (build 2550/release)Библиотека кодирования                   : VirtualDubMod build 2550/releaseВидеоИдентификатор                            : 0Формат                                   : MPEG-4 VisualПрофиль формата                          : Advanced Simple@L5Настройки формата                        : BVOP1 / Custom MatrixПараметр BVOP формата                    : 1Параметр QPel формата                    : НетПараметр GMC формата                     : Без точки переходаПараметр матрицы формата                 : ВыборочнаяИдентификатор кодека                     : XVIDИдентификатор кодека/Подсказка           : XviDПродолжительность                        : 44 м. 29 с.Битрейт                                  : 2100 Кбит/секШирина                                   : 720 пикселейВысота                                   : 400 пикселейСоотношение сторон                       : 16:9Частота кадров                           : 25,000 кадров/секЦветовое пространство                    : YUVСубдискретизация насыщенности            : 4:2:0Битовая глубина                          : 8 битТип развёртки                            : ПрогрессивнаяМетод сжатия                             : С потерямиБит/(Пиксели*Кадры)                      : 0.292Размер потока                            : 668 Мбайт (91%)Библиотека кодирования                   : XviD 67АудиоИдентификатор                            : 1Формат                                   : AC-3Формат/Информация                        : Audio Coding 3Идентификатор кодека                     : 2000Продолжительность                        : 44 м. 29 с.Вид битрейта                             : ПостоянныйБитрейт                                  : 192 Кбит/секКаналы                                   : 2 каналаРасположение каналов                     : Front: L RЧастота                                  : 48,0 КГцЧастота кадров                           : 31,250 кадров/сек (1536 SPF)Битовая глубина                          : 16 битМетод сжатия                             : С потерямиРазмер потока                            : 61,1 Мбайт (8%)Выравнивание                             : Разделение по промежуткамПродолжительность промежутка             : 40  мс. (1,00 видеокадр)Время предзагрузки промежутка            : 500  мс.ServiceKind/String                       : Complete Main

Чтобы скачать этот контент, Вам необходимо:
1. Скачать и установить торрент-клиент [клик для Windows], (для мобильного найдите на Play Маркет).
2. Кликнуть по [Скачать]


Внимание.
Если проверка ВЫ НЕ РОБОТ - не работает, значит Вы используете устаревший браузер.
Установите актуальный браузер и повторно кликните по [Скачать]
Безопасность: торрент-клиент разрешён АВ Касперского.

[asmlocator.ru].t568636.torrent 
Торрент: Зарегистрирован [ 2018-09-18 12:30 ] · 0766E2E2048427D6D9B6C8E1349322DEA4A490CB

Скачать .torrent

Скачать

15 KB

Статус: проверено
Скачан: 1 раз
Размер: 732 MB
terms.php
[Профиль] [ЛС]
Показать сообщения:    
Ответить на тему

Текущее время: 12-Дек 14:58

Часовой пояс: UTC ± 0



Вы не можете начинать темы
Вы не можете отвечать на сообщения
Вы не можете редактировать свои сообщения
Вы не можете удалять свои сообщения
Вы не можете голосовать в опросах
Вы не можете прикреплять файлы к сообщениям
Вы можете скачивать файлы
Верим фактам, а не вранью Путина! Факт, что Правительство ведёт Россию к истреблению.
Так как численность населения падает, даже не смотря на приток эмигрантов!
Русская нация вымирает и вырождается, смешиваясь с эмигрантами!
Факт, что военных и граждан предприятий заставляют голосовать за партию Единая Россия и Путина
ПОД СТРАХОМ УВОЛЬНЕНИЯ!
Нам не нужно Правительство, блокирующее личную жизнь, интернет, нарушающее сохранность данных.
Все эти действия финансируются за счёт народа!