Охота на генералов Гитлера / Stalking Hitler\'s generals (Жан-Кристоф Карон / Jean-Christoph Caron) [2011, Документальный, война, история, HDTVRip]

Ответить на тему
Статистика раздачи
Размер:  676 MB   |    Зарегистрирован:  1 год 4 месяца   |    Скачан:  0 раз

Полного источника не было: 42 минуты

 
   
 
 
Автор Сообщение

star21 ®

Пол: Женский

Стаж: 4 года 2 месяца

Сообщений: 551946

Откуда: Екатеринбург

Создавать темы 01-Сен-2018 19:00

[Цитировать]

Охота на генералов Гитлера / Stalking Hitler's generals Дата/Год выпуска: 2011
Страна: США, National Geographic
Жанр: Документальный, война, история
Продолжительность: 00:45:00
Перевод: Профессиональный (дублированный)
Режиссер: Жан-Кристоф Карон / Jean-Christoph CaronТелеканал: National GeographicОписание: Рассказ о двух дерзких операциях британских коммандос во время Второй мировой войны в пустыне Ливии и на острове Крит, целью которых был захват в плен или ликвидация высокопоставленных нацистских генералов - Эрвина Роммеля и Генриха Крайпе.Доп. информация: Авторство релиза - alf62
качество: HDTVRip
формат: AVI
Видео: 720x400 (1.80:1), 25 fps, XviD build 73 ~1899 kbps avg, 0.26 bit/pixel
Аудио: 48 kHz, AC3 Dolby Digital, 2/0 (L,R) ch, ~192.00 kbps avgОхота на генералов Гитлера / Stalking Hitler's generals на rutracker.cr

MediaInfo

ОбщееПолное имя                               : E:\Запись\Stalking Hitler's generals\Охота.на.генералов.Гитлера.2011.XviD.HDTVRip.alf62.aviФормат                                   : AVIФормат/Информация                        : Audio Video InterleaveРазмер файла                             : 676 МбайтПродолжительность                        : 45 м.Общий поток                              : 2101 Кбит/секПрограмма кодирования                    : VirtualDubMod 1.5.10.3 | www.virtualdub-fr.org || (build 2550/release)Библиотека кодирования                   : VirtualDubMod build 2550/releaseВидеоИдентификатор                            : 0Формат                                   : MPEG-4 VisualПрофиль формата                          : Advanced Simple@L5Параметр BVOP формата                    : 2Параметр QPel формата                    : НетПараметр GMC формата                     : Без точки переходаПараметр матрицы формата                 : Default (MPEG)Идентификатор кодека                     : XVIDИдентификатор кодека/Подсказка           : XviDПродолжительность                        : 45 м.Битрейт                                  : 1900 Кбит/секШирина                                   : 720 пикселейВысота                                   : 400 пикселейСоотношение сторон                       : 16:9Частота кадров                           : 25,000 кадров/секЦветовое пространство                    : YUVСубдискретизация насыщенности            : 4:2:0Битовая глубина                          : 8 битТип развёртки                            : ПрогрессивнаяМетод сжатия                             : С потерямиБит/(Пиксели*Кадры)                      : 0.264Размер потока                            : 611 Мбайт (90%)Библиотека кодирования                   : XviD 73АудиоИдентификатор                            : 1Формат                                   : AC-3Формат/Информация                        : Audio Coding 3Расширение режима                        : CM (complete main)Параметр Endianness формата              : BigИдентификатор кодека                     : 2000Продолжительность                        : 45 м.Вид битрейта                             : ПостоянныйБитрейт                                  : 192 Кбит/секКаналы                                   : 2 каналаРасположение каналов                     : Front: L RЧастота                                  : 48,0 КГцБитовая глубина                          : 16 битМетод сжатия                             : С потерямиРазмер потока                            : 61,8 Мбайт (9%)Выравнивание                             : Разделение по промежуткамПродолжительность промежутка             : 40  мс. (1,00 видеокадр)Время предзагрузки промежутка            : 500  мс.

Скриншоты

Чтобы скачать этот контент, Вам необходимо:
1. Скачать и установить торрент-клиент [клик для Windows], (для мобильного найдите на Play Маркет).
2. Кликнуть по [Скачать]


Внимание.
Если проверка ВЫ НЕ РОБОТ - не работает, значит Вы используете устаревший браузер.
Установите актуальный браузер и повторно кликните по [Скачать]
Безопасность: торрент-клиент разрешён АВ Касперского.

[asmlocator.ru].t563846.torrent 
Торрент: Зарегистрирован [ 2018-09-01 19:00 ] · 57B334435184C06DCE3030B6B4E8165BCB900C58

Скачать .torrent

Скачать

14 KB

Статус: проверено
Скачан: 0 раз
Размер: 676 MB
terms.php
[Профиль] [ЛС]
Показать сообщения:    
Ответить на тему

Текущее время: 27-Янв 08:07

Часовой пояс: UTC ± 0



Вы не можете начинать темы
Вы не можете отвечать на сообщения
Вы не можете редактировать свои сообщения
Вы не можете удалять свои сообщения
Вы не можете голосовать в опросах
Вы не можете прикреплять файлы к сообщениям
Вы можете скачивать файлы
Верим фактам, а не вранью Путина! Факт, что Правительство ведёт Россию к истреблению.
Так как численность населения падает, даже не смотря на приток эмигрантов!
Русская нация вымирает и вырождается, смешиваясь с эмигрантами!
Факт, что военных и граждан предприятий заставляют голосовать за партию Единая Россия и Путина
ПОД СТРАХОМ УВОЛЬНЕНИЯ!
Нам не нужно Правительство, блокирующее личную жизнь, интернет, нарушающее сохранность данных.
Все эти действия финансируются за счёт народа!