Залечь на дно в Брюгге / In Bruges (Мартин МакДона / Martin McDonagh) [2008, США, Великобритания, комедия, драма, криминал, WEBRip 1080p] [Open Matte] DUB + AVO (Завгородний) + Sub Rus Eng + Original Eng

Ответить на тему
Статистика раздачи
Размер:  4,46 GB   |    Зарегистрирован:  2 месяца 5 дней   |    Скачан:  0 раз

Полного источника не было: Никогда

 
   
 
 
Автор Сообщение

star21 ®

Пол: Женский

Стаж: 2 года 10 месяцев

Сообщений: 553005

Откуда: Екатеринбург

Создавать темы 13-Июл-2018 00:45

[Цитировать]

Залечь на дно в Брюгге / In Bruges / Open Matte Страна: США, Великобритания
Жанр: комедия, драма, криминал
Год выпуска: 2008
Продолжительность: 01:42:40Перевод: Профессиональный (дублированный)
Перевод 7: Авторский (одноголосый закадровый) В.Завгородний
Субтитры: русские, английские
Оригинальная аудиодорожка: английскийРежиссер: Мартин МакДона / Martin McDonaghВ ролях: Брендан Глисон, Колин Фаррелл, Рэйф Файнс, Клеменс Поузи, Джордан Прентис, Элизабет Беррингтон, Руди Бломм, Оливер Бонжур, Марк Донован, Энн Элсли, Жан-Марк Фаворин, Эрик Годон, Желько Иванек, Сачи Кимура, Анна Маделей, Луис Намми, Джереми Ренье, Текла Рютен, Тео Стивенсон, Инез СтинтонОписание: После того, как наемные убийцы Рэй и Кен запороли в Лондоне важное задание, их злобный шеф Гарри приказывает им отправиться в Брюгге и не высовываться. Оказавшись в старинном бельгийском городке, Рэй от нечего делать флиртует с местной красоткой, пока Кен наслаждается жизнью и неожиданным отпуском. Кажется, ничто не предвещает беду в спокойном городе…Доп. информация: Исходник с онлайн-кинотеатра Кинопоиск. Звук с лицензииФильмы в Fullscreen (4:3) и Open Matte (16:9) форматахСэмпл: http://multi-up.com/1169497Тип релиза: WEBRip 1080p
Контейнер: MKVВидео: MPEG-4 AVC/H.264 / 5000 kbps / 1920x1080 / 25.000 fps
Аудио 1: DUB DVD (Rus) / AC3 / 6 ch / 448 kbps / 48 kHz
Аудио 2: AVO Завгородний (Rus) / AC3 / 2 ch / 384 kbps / 48 kHz
Аудио 3: Original (Eng) / AC3 / 6 ch / 384 kbps / 48 kHz
Формат субтитров: softsub (SRT)
Доп. информация о субтитрах: Русские (full), Английские (full)
#Сохранены оригинальные чаптеры как на DVD

MediaInfo

General
Unique ID : 203129320663150939687735469516664569746 (0x98D148BC677993779BB73209EC277F92)
Complete name : J:\Torrents\Готовые релизы\Залечь на дно в Брюгге (2008) WEBRip-1080p [Open Matte].mkv
Format : Matroska
Format version : Version 2
File size : 4.46 GiB
Duration : 1 h 42 min
Overall bit rate : 6 216 kb/s
Movie name : Залечь на дно в Брюгге / In Bruges (2008) [Open Matte]
Encoded date : UTC 2018-07-10 01:45:50
Writing application : mkvmerge v5.5.0 ('Healer') built on Apr 24 2012 23:47:03
Writing library : libebml v1.2.3 + libmatroska v1.3.0Video
ID : 1
Format : AVC
Format/Info : Advanced Video Codec
Format profile : Baseline@L3
Format settings : 1 Ref Frames
Format settings, CABAC : No
Format settings, ReFrames : 1 frame
Codec ID : V_MPEG4/ISO/AVC
Duration : 1 h 42 min
Nominal bit rate : 5 000 kb/s
Width : 1 920 pixels
Height : 1 080 pixels
Display aspect ratio : 16:9
Frame rate mode : Constant
Frame rate : 25.000 FPS
Color space : YUV
Chroma subsampling : 4:2:0
Bit depth : 8 bits
Scan type : Progressive
Bits/(Pixel*Frame) : 0.096
Title : WEBRip (1080p) / MPEG-4 AVC/H.264 / 5000 kbps / 1920x1080 / 25.000 fps
Writing library : x264 core 148 r2721 72d53ab
Encoding settings : cabac=0 / ref=1 / deblock=1:0:0 / analyse=0x1:0x131 / me=umh / subme=10 / psy=1 / psy_rd=1.00:0.00 / mixed_ref=0 / me_range=24 / chroma_me=1 / trellis=2 / 8x8dct=0 / cqm=0 / deadzone=21,11 / fast_pskip=1 / chroma_qp_offset=-2 / threads=34 / lookahead_threads=2 / sliced_threads=0 / nr=0 / decimate=1 / interlaced=0 / bluray_compat=0 / constrained_intra=0 / bframes=0 / weightp=0 / keyint=50 / keyint_min=5 / scenecut=40 / intra_refresh=0 / rc_lookahead=50 / rc=2pass / mbtree=1 / bitrate=5000 / ratetol=1.0 / qcomp=0.60 / qpmin=0 / qpmax=69 / qpstep=4 / cplxblur=20.0 / qblur=0.5 / vbv_maxrate=5000 / vbv_bufsize=5000 / nal_hrd=none / filler=0 / ip_ratio=1.40 / aq=1:1.00
Language : English
Default : No
Forced : NoAudio #1
ID : 2
Format : AC-3
Format/Info : Audio Coding 3
Codec ID : A_AC3
Duration : 1 h 42 min
Bit rate mode : Constant
Bit rate : 448 kb/s
Channel(s) : 6 channels
Channel positions : Front: L C R, Side: L R, LFE
Sampling rate : 48.0 kHz
Frame rate : 31.250 FPS (1536 SPF)
Bit depth : 16 bits
Compression mode : Lossy
Delay relative to video : -21 ms
Stream size : 329 MiB (7%)
Title : DUB DVD (Rus) / AC3 / 6 ch / 448 kbps / 48 kHz
Language : Russian
Service kind : Complete Main
Default : Yes
Forced : YesAudio #2
ID : 3
Format : AC-3
Format/Info : Audio Coding 3
Codec ID : A_AC3
Duration : 1 h 42 min
Bit rate mode : Constant
Bit rate : 384 kb/s
Channel(s) : 2 channels
Channel positions : Front: L R
Sampling rate : 48.0 kHz
Frame rate : 31.250 FPS (1536 SPF)
Bit depth : 16 bits
Compression mode : Lossy
Delay relative to video : -21 ms
Stream size : 282 MiB (6%)
Title : AVO Завгородний (Rus) / AC3 / 2 ch / 384 kbps / 48 kHz
Language : Russian
Service kind : Complete Main
Default : No
Forced : NoAudio #3
ID : 4
Format : AC-3
Format/Info : Audio Coding 3
Codec ID : A_AC3
Duration : 1 h 42 min
Bit rate mode : Constant
Bit rate : 384 kb/s
Channel(s) : 6 channels
Channel positions : Front: L C R, Side: L R, LFE
Sampling rate : 48.0 kHz
Frame rate : 31.250 FPS (1536 SPF)
Bit depth : 16 bits
Compression mode : Lossy
Delay relative to video : -21 ms
Stream size : 282 MiB (6%)
Title : Original (Eng) / AC3 / 6 ch / 384 kbps / 48 kHz
Language : English
Service kind : Complete Main
Default : No
Forced : NoAudio #4
ID : 5
Format : AAC
Format/Info : Advanced Audio Codec
Format profile : LC
Codec ID : A_AAC-2
Duration : 1 h 42 min
Channel(s) : 2 channels
Channel positions : Front: L R
Sampling rate : 48.0 kHz
Frame rate : 46.875 FPS (1024 SPF)
Compression mode : Lossy
Delay relative to video : -21 ms
Title : DUB (Rus) / AAC / 2 ch / 128 kbps / 48 kHz
Language : Russian
Default : No
Forced : NoText #1
ID : 6
Format : UTF-8
Codec ID : S_TEXT/UTF8
Codec ID/Info : UTF-8 Plain Text
Title : Full (Rus) / S_TEXT/UTF8
Language : Russian
Default : No
Forced : NoText #2
ID : 7
Format : UTF-8
Codec ID : S_TEXT/UTF8
Codec ID/Info : UTF-8 Plain Text
Title : Full (Eng) / S_TEXT/UTF8
Language : English
Default : No
Forced : No

Cравнения с другими раздачами

Данный релиз
Hybrid 1080p

Скриншоты

  • Звуковые дорожки №1-№3 взяты из раздачи пользователя propellerzz
  • Субтитры взяты из раздачи пользователя Lamazz

Для скачки контента: [Установить программу-клиент] и кликнуть по - СкачатьБезопасность: клиент проверен АВ Касперского

[asmlocator.ru].t548391.torrent 
Торрент: Зарегистрирован [ 2018-07-13 00:45 ] · 5360BEEA266323D0F625222DB8F18A555A3CB199

Скачать .torrent

Скачать

23 KB

Статус: проверено
Скачан: 0 раз
Размер: 4,46 GB
terms.php
[Профиль] [ЛС]
Показать сообщения:    
Ответить на тему

Текущее время: 19-Сен 00:12

Часовой пояс: UTC ± 0



Вы не можете начинать темы
Вы не можете отвечать на сообщения
Вы не можете редактировать свои сообщения
Вы не можете удалять свои сообщения
Вы не можете голосовать в опросах
Вы не можете прикреплять файлы к сообщениям
Вы можете скачивать файлы