Фури-кури 2 / FLCL Progressive [TV] [06 из 06] [Без хардсаба] [RUS(int), ENG, SUB] [2015, приключения HDTVRip] [HWP]

Ответить на тему
Статистика раздачи
Размер:  1,84 GB   |    Зарегистрирован:  6 дней   |    Скачан:  0 раз

Полного источника не было: 1 день 23 часа

 
   
 
 
Автор Сообщение

star21 ®

Пол: Женский

Стаж: 2 года 8 месяцев

Сообщений: 532152

Откуда: Екатеринбург

Создавать темы 12-Июл-2018 20:35

[Цитировать]

Фури-кури 2 / FLCL Progressive Страна: Япония
Год выпуска: 2018 г.
Жанр: приключения
Тип: TV
Продолжительность: 6 эп, ~25 мин. серия
Режиссер: Мотохиро Кацуюки
Студия: Production I.G
  • Озвучка:
    одноголосая от Persona99 (женская)техподдержка: goodwingОписание: Прямое продолжение аниме «Фури-кури».Много лет миновало с тех пор, как нелюдимый Наота Нандаба и неистовая Харуко Харухара устраивали сумасшедшие гонки и сражения с инопланетными силами, скромно называя это «приключениями».Теперь Наота... Хотя нет, не Наота. Здесь его вообще не будет.Наша главная героиня — Хидоми. Она — самый что ни на есть обычный подросток, уже не ждущий от своей скучной и серой жизни каких-то сюрпризов. Точнее не ждала, пока в школу девочки не устроилась новая преподавательница с прекрасным именем... Харуко! Пожив мирно последние минуты, Хидоми обнаруживает, что на её город напала «Medical Mechanica». Прибывшая «Medical Mechanica» — инопланетная компания прямиком из космоса — начала нешуточную войну с ещё одной такой же компанией под названием «Fraternity». И вот теперь их вражда дошла до границ Земли.Тем временем Хидоми понимает, что в ней самой скрыта некая тайна, которая может спасти всех. Да вот только раскрыть эту тайну под силу лишь неугомонной Харуко. И ведь ещё неясны многие вещи... Почему Харуко вернулась? Куда делась её гитара Rickenbacker 4001, которую она оставила Наоте? И где сейчас андроид Канти?Впрочем, Хидоми наверняка решит эти загадки.Качество: HDTVRip
    Тип релиза: Без хардсаба
    Формат видео: AVI
    Автор рипа:
    Видео: 704x396, 23.976 fps, XviD ~1 349 Kbps
    Аудио: Русская / 2 ch / AC-3 / 48 kHz / 192 Kbps / RUS(int) [озвучка: Persona99]
    Аудио 2: Английская / 2 ch / AC-3 / 48 kHz / 192 Kbps
    Субтитры: Субтитры от Bazaar Zetsubou: Перевод и оформление: lukorepka Корректура: Литрый Хис(1-4) Перевод Zed2che(5-6)

Подробные тех. данные

GeneralComplete name                            : E:\видео\Аниме\FLCL Progressive\FLCL Progressive - 01.aviFormat                                   : AVIFormat/Info                              : Audio Video InterleaveFile size                                : 284 MiBDuration                                 : 22mn 41sOverall bit rate                         : 1 751 KbpsWriting application                      : VirtualDubMod 1.5.10.3 (build 2550/release)Writing library                          : VirtualDubMod build 2550/releaseVideoID                                       : 0Format                                   : MPEG-4 VisualFormat profile                           : Advanced Simple@L5Format settings, BVOP                    : 2Format settings, QPel                    : NoFormat settings, GMC                     : No warppointsFormat settings, Matrix                  : Default (H.263)Codec ID                                 : XVIDCodec ID/Hint                            : XviDDuration                                 : 22mn 41sBit rate                                 : 1 349 KbpsWidth                                    : 704 pixelsHeight                                   : 396 pixelsDisplay aspect ratio                     : 16:9Frame rate                               : 29.970 fpsColor space                              : YUVChroma subsampling                       : 4:2:0Bit depth                                : 8 bitsScan type                                : ProgressiveCompression mode                         : LossyBits/(Pixel*Frame)                       : 0.161Stream size                              : 219 MiB (77%)Writing library                          : XviD 64Audio #1ID                                       : 1Format                                   : AC-3Format/Info                              : Audio Coding 3Mode extension                           : CM (complete main)Format settings, Endianness              : BigCodec ID                                 : 2000Duration                                 : 22mn 41sBit rate mode                            : ConstantBit rate                                 : 192 KbpsChannel(s)                               : 2 channelsChannel positions                        : Front: L RSampling rate                            : 48.0 KHzCompression mode                         : LossyStream size                              : 31.2 MiB (11%)Alignment                                : Split accross interleavesInterleave, duration                     : 33 ms (1.00 video frame)Interleave, preload duration             : 500 msTitle                                    : Persona99Audio #2ID                                       : 2Format                                   : AC-3Format/Info                              : Audio Coding 3Mode extension                           : CM (complete main)Format settings, Endianness              : BigCodec ID                                 : 2000Duration                                 : 22mn 41sBit rate mode                            : ConstantBit rate                                 : 192 KbpsChannel(s)                               : 2 channelsChannel positions                        : Front: L RSampling rate                            : 48.0 KHzCompression mode                         : LossyStream size                              : 31.2 MiB (11%)Alignment                                : Split accross interleavesInterleave, duration                     : 33 ms (1.00 video frame)Interleave, preload duration             : 500 msTitle                                    : English

Список эпизодов

01. Новое начало
02. Халявный мёд
03. Блинчики – лягушки
04. Водоворот
05. Дурак на планете
06. Наш бег

Скриншоты


Для скачки контента: [Установить программу-клиент] и кликнуть по - СкачатьБезопасность: клиент проверен АВ Касперского

[asmlocator.ru].t548326.torrent 
Торрент: Зарегистрирован [ 2018-07-12 20:35 ] · 9A552714F3FC9834E14D14CF055608159DC6974A

Скачать .torrent

Скачать

20 KB

Статус: проверено
Скачан: 0 раз
Размер: 1,84 GB
terms.php
[Профиль] [ЛС]
Показать сообщения:    
Ответить на тему

Текущее время: 19-Июл 00:21

Часовой пояс: UTC ± 0



Вы не можете начинать темы
Вы не можете отвечать на сообщения
Вы не можете редактировать свои сообщения
Вы не можете удалять свои сообщения
Вы не можете голосовать в опросах
Вы не можете прикреплять файлы к сообщениям
Вы можете скачивать файлы