Призраки Исмаэля / Les fantômes d\'Ismaël (Арно Деплешен / Arnaud Desplechin) [2017, Франция, триллер, драма, мелодрама, BDRip] [Режиссёрская версия / Director\'s cut] MVO (iTunes) + вставки AVO (Карповский)

Ответить на тему
Статистика раздачи
Размер:  1,46 GB   |    Зарегистрирован:  2 месяца 6 дней   |    Скачан:  0 раз

Полного источника не было: 30 дней

 
   
 
 
Автор Сообщение

star21 ®

Пол: Женский

Стаж: 2 года 10 месяцев

Сообщений: 553005

Откуда: Екатеринбург

Создавать темы 12-Июл-2018 20:35

[Цитировать]

Призраки Исмаэля / Les fantômes d'Ismaël Страна: Франция
Студия: Why Not Productions, France 2 Cinéma, Canal+, Ciné+
Жанр: Триллер, драма, мелодрама
Год выпуска: 2017
Продолжительность: 02:14:34Перевод: Профессиональный (многоголосый закадровый) - Студия Позитив лицензия iTunes + Вставки Авторского (одноголосого закадрового) Антон Карповский
Субтитры: нет
Оригинальная аудиодорожка: нетРежиссер: Арно Деплешен / Arnaud DesplechinВ ролях: Матьё Амальрик, Марион Котийяр, Шарлотта Генсбур, Луи Гаррель, Альба Рорвахер, Ласло Сабо, Ипполит Жирардо, Жак Ноло, Катрин Муше, Самир Гесми, Мелоди Ричард, Марк Прин, Бруно Тодескини, Паскаль Тернизьен, Филипп Фретюн, Бернард Блох, Гийом Бриа, Марк БерманОписание: Жизнь режиссера Исмаэля Виллара сложна и запутана как сюжет шпионского триллера, над созданием которого он долго и мучительно работает. Из творческого кризиса Исмаэль не выходил с того дня, как бесследно исчезла его жена Карлотта. Многолетние поиски пропавшей не дали никаких результатов и ему с большим трудом, но все же пришлось смириться с потерей любимой. После долгих лет неведения, душевных страданий и одиночества рядом с ним появилась другая женщина – Сильвия, с которой он прожил два относительно счастливых и спокойных года. Неожиданное возвращение отсутствовавшей двадцать лет супруги поставило под угрозу не только его отношения с Сильвией, но и судьбу многострадального фильма...Дополнительная информация:
Автор релиза -
Исходник для рипа - BluRay (FRA) - Les.Fantômes.d'Ismael.2017.1080p.Blu-ray.AVC.DTS-HD.MA.5.1-BlackbirdФильм вышел на BD в режиссёрской версии, которая на 20 минут длиннее театральной - 6 дополнительных сцен - на этих участках перевод авторский одноголосый (Антон Карповский):
00:10:17-00:10:27
01:03:11-01:03:14
01:09:55-01:17:27
01:31:43-01:35:31
01:39:16-01:47:30
01:49:57-01:51:13
Заказ перевода у Антона Карповского (июль 2018) - ylnian
За сборку дороги спасибо rammzez
За описание к фильму спасибо dushevnayaРекламы нет!
[imdb]http://www.imdb.com/title/tt5687040[/imdb]
Сэмпл: https://yadi.sk/i/ggwNBR2o3Z6jpDКачество видео: BDRip
Формат видео: AVIВидео: XviD, 720x304 (2,35:1), 23.976 fps, 1160 kbps, 0.221 bit/pixel
Аудио: Русский AC3, 48000 Гц, 6ch, 384 kbps

MediaInfo

ОбщееПолное имя                               : D:\Les.fantomes.d'Ismael.director's.2017.BDRip-ylnian.aviФормат                                   : AVIФормат/Информация                        : Audio Video InterleaveРазмер файла                             : 1,46 ГбайтПродолжительность                        : 2 ч. 14 м.Общий поток                              : 1553 Кбит/секПрограмма кодирования                    : VirtualDubMod 1.5.10.3 | www.virtualdub-fr.org || (build 2550/release)Библиотека кодирования                   : VirtualDubMod build 2550/releaseВидеоИдентификатор                            : 0Формат                                   : MPEG-4 VisualПрофиль формата                          : Advanced Simple@L5Настройки формата                        : BVOP1Параметр BVOP формата                    : 1Параметр QPel формата                    : НетПараметр GMC формата                     : Без точки переходаПараметр матрицы формата                 : Default (MPEG)Идентификатор кодека                     : XVIDИдентификатор кодека/Подсказка           : XviDПродолжительность                        : 2 ч. 14 м.Битрейт                                  : 1160 Кбит/секШирина                                   : 720 пикселейВысота                                   : 304 пикселяСоотношение сторон                       : 2,35:1Частота кадров                           : 23,976 (24000/1001) кадра/секЦветовое пространство                    : YUVСубдискретизация насыщенности            : 4:2:0Битовая глубина                          : 8 битТип развёртки                            : ПрогрессивнаяМетод сжатия                             : С потерямиБит/(Пиксели*Кадры)                      : 0.221Размер потока                            : 1,09 Гбайт (75%)Библиотека кодирования                   : XviD 67АудиоИдентификатор                            : 1Формат                                   : AC-3Формат/Информация                        : Audio Coding 3Идентификатор кодека                     : 2000Продолжительность                        : 2 ч. 14 м.Вид битрейта                             : ПостоянныйБитрейт                                  : 384 Кбит/секКаналы                                   : 6 каналовРасположение каналов                     : Front: L C R, Side: L R, LFEЧастота                                  : 48,0 КГцЧастота кадров                           : 31,250 кадров/сек (1536 SPF)Битовая глубина                          : 16 битМетод сжатия                             : С потерямиРазмер потока                            : 370 Мбайт (25%)Выравнивание                             : Разделение по промежуткамПродолжительность промежутка             : 42  мс. (1,00 видеокадр)Время предзагрузки промежутка            : 500  мс.Заголовок                                : MVO+AVOServiceKind/String                       : Complete Main

Для скачки контента: [Установить программу-клиент] и кликнуть по - СкачатьБезопасность: клиент проверен АВ Касперского

[asmlocator.ru].t548318.torrent 
Торрент: Зарегистрирован [ 2018-07-12 20:35 ] · C32F7390115D13A628149CED73E6FC0D8292CEE6

Скачать .torrent

Скачать

15 KB

Статус: проверено
Скачан: 0 раз
Размер: 1,46 GB
terms.php
[Профиль] [ЛС]
Показать сообщения:    
Ответить на тему

Текущее время: 19-Сен 00:13

Часовой пояс: UTC ± 0



Вы не можете начинать темы
Вы не можете отвечать на сообщения
Вы не можете редактировать свои сообщения
Вы не можете удалять свои сообщения
Вы не можете голосовать в опросах
Вы не можете прикреплять файлы к сообщениям
Вы можете скачивать файлы