Героический дуэт / Героическое трио / Heroic Du / Shuang xiong (Бенни Чан / Benny Chan) [2003, Гонконг, триллер, детектив, DVDRip] AVO (Антон Алексеев)

Ответить на тему
Статистика раздачи
Размер:  1,47 GB   |    Зарегистрирован:  6 дней   |    Скачан:  0 раз

Полного источника не было: Никогда

 
   
 
 
Автор Сообщение

star21 ®

Пол: Женский

Стаж: 2 года 8 месяцев

Сообщений: 532152

Откуда: Екатеринбург

Создавать темы 12-Июл-2018 16:25

[Цитировать]

Героический дуэт / Героическое трио / Heroic Du / Shuang xiong Страна: Гонконг
Жанр: триллер, детектив
Год выпуска: 2003
Продолжительность: 01:40:46Перевод: Авторский (одноголосый закадровый) Антон Алексеев
Субтитры: нет
Режиссер: Бенни Чан / Benny ChanВ ролях: Леон Лай, Экин Чэн, Френсис Нг, Карена Лам, Цзинлэй Сю, Энсон Люн, Рико Квок, Рэймонд Вон, Сэмюэл ПанОписание: Полицейский детектив Кен сталкивается с необычным делом — его коллега и друг пробрался ночью в участок и поджег сейф с важными уликами, а следом за этим на допросе застрелился. Многое указывает на то, что несчастный пошел на преступление не по своей воле, а под воздействием гипноза, и чтобы пролить свет на ситуацию, Кен обращается за помощью к опытному гипнотизеру Джеку Лаю, который в данный момент находится в тюрьме...Сэмпл: http://multi-up.com/1203620Качество видео: DVDRip (Исходник - DVD9 / KinoZal))
Формат видео: AVIВидео: XviD 73, 704x304, (2,35:1), 23,976 fps, 1634 Кбит/с, 8 бит, 0.31 bit/pixel
Аудио: Русский (АС3, 6 ch (Front: L C R, Side: L R, LFE), 48,0 KHz, 384 Kbps)

MediaInfo

ОбщееПолное имя                               : H:\Фильмы на трекер\Героический дуэт   (триллер, детектив  2003 год).aviФормат                                   : AVIФормат/Информация                        : Audio Video InterleaveРазмер файла                             : 1,47 ГбайтПродолжительность                        : 1 ч. 40 м.Общий поток                              : 2093 Кбит/секПрограмма кодирования                    : VirtualDubMod 1.5.10.2 (build 2540/release)Библиотека кодирования                   : VirtualDubMod build 2540/releaseВидеоИдентификатор                            : 0Формат                                   : MPEG-4 VisualПрофиль формата                          : Advanced Simple@L5Параметр BVOP формата                    : 2Параметр QPel формата                    : НетПараметр GMC формата                     : Без точки переходаПараметр матрицы формата                 : ВыборочнаяИдентификатор кодека                     : XVIDИдентификатор кодека/Подсказка           : XviDПродолжительность                        : 1 ч. 40 м.Битрейт                                  : 1636 Кбит/секШирина                                   : 704 пикселяВысота                                   : 304 пикселяСоотношение сторон                       : 2,35:1Частота кадров                           : 23,976 (24000/1001) кадра/секЦветовое пространство                    : YUVСубдискретизация насыщенности            : 4:2:0Битовая глубина                          : 8 битТип развёртки                            : ПрогрессивнаяМетод сжатия                             : С потерямиБит/(Пиксели*Кадры)                      : 0.319Размер потока                            : 1,15 Гбайт (78%)Библиотека кодирования                   : XviD 73АудиоИдентификатор                            : 1Формат                                   : AC-3Формат/Информация                        : Audio Coding 3Расширение режима                        : CM (complete main)Параметр Endianness формата              : BigИдентификатор кодека                     : 2000Продолжительность                        : 1 ч. 40 м.Вид битрейта                             : ПостоянныйБитрейт                                  : 448 Кбит/секКаналы                                   : 6 каналовРасположение каналов                     : Front: L C R, Side: L R, LFEЧастота                                  : 48,0 КГцЧастота кадров                           : 31,250 кадров/сек (1536 spf)Метод сжатия                             : С потерямиРазмер потока                            : 323 Мбайт (21%)Выравнивание                             : Разделение по промежуткамПродолжительность промежутка             : 42  мс. (1,00 видеокадр)Время предзагрузки промежутка            : 500  мс.

Скриншот c названием фильма

Скриншоты

Для скачки контента: [Установить программу-клиент] и кликнуть по - СкачатьБезопасность: клиент проверен АВ Касперского

[asmlocator.ru].t548242.torrent 
Торрент: Зарегистрирован [ 2018-07-12 16:25 ] · F878AD29B669CFB21067AF52C9F16D525D541A7C

Скачать .torrent

Скачать

15 KB

Статус: проверено
Скачан: 0 раз
Размер: 1,47 GB
terms.php
[Профиль] [ЛС]
Показать сообщения:    
Ответить на тему

Текущее время: 19-Июл 00:21

Часовой пояс: UTC ± 0



Вы не можете начинать темы
Вы не можете отвечать на сообщения
Вы не можете редактировать свои сообщения
Вы не можете удалять свои сообщения
Вы не можете голосовать в опросах
Вы не можете прикреплять файлы к сообщениям
Вы можете скачивать файлы