Кукай / Kukai (Дзюнъя Сато / Jun\'ya Sato) [1984, Япония, драма, исторический, DVDRip] + Sub Rus + Original Jpn

Ответить на тему
Статистика раздачи
Размер:  1,89 GB   |    Зарегистрирован:  2 месяца 7 дней   |    Скачан:  0 раз

Полного источника не было: Никогда

 
   
 
 
Автор Сообщение

star21 ®

Пол: Женский

Стаж: 2 года 10 месяцев

Сообщений: 552980

Откуда: Екатеринбург

Создавать темы 12-Июл-2018 10:05

[Цитировать]

Кукай / Kukai / 空海Страна: Япония
Жанр: драма, исторический
Год выпуска: 1984
Продолжительность: 02:48:37Перевод: Субтитры русские - дед_сто_лет©
Оригинальная аудиодорожка: японскийРежиссер: Дзюнъя Сато / Jun'ya SatoВ ролях: Кинъя КИТАОДЗИ, Маюми ОГАВА, Тэрухико САЙГО, Кимиэ СИНГЁДЗИ, Юскэ САТО, Рэндзи ИСИБАСИ, Хидэо МУРОТА, Кантаро СУГА, Микио НАРИТА, Тэцуро ТАМБА, Синскэ МИКИМОТО, Юскэ ТАКИТА, Хироси ТАНАКА, Кадзунага ЦУДЗИ, Дзюн ООБА, Тацуя МИЯДЗАКИ, Ёсими АСИКАВА, Сатико КОДЗУКИ, Дзюн САТАО, Итиро ИДЗАВА, Такаси ООБАЯСИ, Киёси ХАРАДА, Киндзи НАКАМУРА, Такаси НОГУТИ, Кон НИСИМУРА, Кацуо НАКАМУРА, Го КАТО, Хисая МОРИСИГЭОписание: Фильм снят в предверие 1500-летней годовщины смерти Кобо Дайси (774—835). Под именем Кукай он стал основателем секты Сингон, одной из главных школ японского буддизма. Высокообразованный человек, он предпринял путешествие в Китай, изучил санскрит, и выработал удивительно гуманистическую философскую модель мироздания. Он призывал людей получать счастье не в загробном мире, а на этой земле, и добиваться счастья своим трудом, прикладывая к этому все возможные усилия.©
Сравните этот фильм с другим жизнеописанием:
Нитирэн / Nichiren / 日蓮 - 1979 > > > > > > > > > Качество видео: DVDRip
Формат видео: AVIВидео: 720x400 (1.80:1), 23.976 fps, XviD build 50 ~1400 kbps avg, 0.20 bit/pixel
Аудио: 48 kHz, MPEG Layer 3, 2 ch, ~192.00 kbps avg
Формат субтитров: softsub (SRT)
Доп. информация о субтитрах: дед_сто_лет

Пример субтитров

520
01:05:09,235 --> 01:05:10,771
А вы?521
01:05:12,472 --> 01:05:14,940
Я возвращаюсь в Японии.522
01:05:14,941 --> 01:05:16,818
На вашем корабле.523
01:05:18,177 --> 01:05:20,390
Прошу вас.524
01:05:27,621 --> 01:05:30,022
Когда вы сюда приехали?525
01:05:30,023 --> 01:05:32,299
В 768 году.526
01:05:32,367 --> 01:05:33,367
В 768 году?527
01:05:34,327 --> 01:05:36,161
34 года назад.528
01:05:36,162 --> 01:05:38,431
Это до моего рождения.529
01:05:38,432 --> 01:05:44,965
Я копировал все эти сутры,
вот плоды моей 34-летней работы.530
01:05:49,175 --> 01:05:54,420
Наконец, я смогу доставить их в Японию.531
01:06:34,121 --> 01:06:37,432
Китай - это ужасная страна.532
01:06:39,092 --> 01:06:46,533
Она разгрызает каждую мысль,
и глотает её, как тигр.533
01:06:47,567 --> 01:06:52,037
У Японии нет клыков, чтобы кусать.534
01:06:52,038 --> 01:06:55,315
Точно. Нет клыков.535
01:06:56,076 --> 01:07:00,652
Последние 10 лет я пытался стать клыком.536
01:07:00,652 --> 01:07:05,658
Что вы собирались укусить этим клыком?537
01:07:06,486 --> 01:07:11,492
Самые большие и самые твердые вещи.538
01:07:12,325 --> 01:07:14,100
Какие, например?539
01:07:15,562 --> 01:07:16,597
Эзотерическое учение.540
01:07:16,930 --> 01:07:18,932
МОНАСТЫРЬ ЦИНЛУНСЫ, ЧАНЪАНЬ

MediaInfo

GeneralComplete name                    : C:\Torrents\[ASIA]\Kukai(1984)Jun'ya.Sato\Kukai(1984)Jun'ya.Sato.aviFormat                           : AVIFormat/Info                      : Audio Video InterleaveFile size                        : 1.89 GiBDuration                         : 2h 48mnOverall bit rate                 : 1 602 KbpsWriting application              : VirtualDubMod 1.5.4.1 (build 2178/release)Writing library                  : VirtualDub-MPEG2 build 24600/releaseVideoID                               : 0Format                           : MPEG-4 VisualFormat profile                   : Advanced Simple@L5Format settings, BVOP            : 1Format settings, QPel            : NoFormat settings, GMC             : No warppointsFormat settings, Matrix          : CustomCodec ID                         : XVIDCodec ID/Hint                    : XviDDuration                         : 2h 48mnBit rate                         : 1 401 KbpsWidth                            : 720 pixelsHeight                           : 400 pixelsDisplay aspect ratio             : 16:9Frame rate                       : 23.976 fpsColor space                      : YUVChroma subsampling               : 4:2:0Bit depth                        : 8 bitsScan type                        : ProgressiveCompression mode                 : LossyBits/(Pixel*Frame)               : 0.203Stream size                      : 1.65 GiB (87%)Writing library                  : XviD 1.2.1 (UTC 2008-12-04)AudioID                               : 1Format                           : MPEG AudioFormat version                   : Version 1Format profile                   : Layer 3Mode                             : Joint stereoCodec ID                         : 55Codec ID/Hint                    : MP3Duration                         : 2h 48mnBit rate mode                    : ConstantBit rate                         : 192 KbpsChannel(s)                       : 2 channelsSampling rate                    : 48.0 KHzCompression mode                 : LossyStream size                      : 232 MiB (12%)Alignment                        : Aligned on interleavesInterleave, duration             : 42 ms (1.00 video frame)Interleave, preload duration     : 504 msWriting library                  : LAME3.98.2

Скриншот c названием фильма

Скриншоты

Для скачки контента: [Установить программу-клиент] и кликнуть по - СкачатьБезопасность: клиент проверен АВ Касперского

[asmlocator.ru].t548161.torrent 
Торрент: Зарегистрирован [ 2018-07-12 10:05 ] · 7F720A66402A20CC5DED3D46AB701D6B9CBAA17B

Скачать .torrent

Скачать

19 KB

Статус: проверено
Скачан: 0 раз
Размер: 1,89 GB
terms.php
[Профиль] [ЛС]
Показать сообщения:    
Ответить на тему

Текущее время: 20-Сен 06:01

Часовой пояс: UTC ± 0



Вы не можете начинать темы
Вы не можете отвечать на сообщения
Вы не можете редактировать свои сообщения
Вы не можете удалять свои сообщения
Вы не можете голосовать в опросах
Вы не можете прикреплять файлы к сообщениям
Вы можете скачивать файлы