Тысяча глаз / Tausend Augen (Ханс-Кристоф Блюменберг / Hans-Christoph Blumenberg) [1984, ФРГ, эротический триллер, VHSRip] + Sub Rus + Original Deu

Ответить на тему
Статистика раздачи
Размер:  843 MB   |    Зарегистрирован:  4 месяца 6 дней   |    Скачан:  0 раз

Полного источника не было: 1 месяц 23 дня

 
   
 
 
Автор Сообщение

star21 ®

Пол: Женский

Стаж: 3 года

Сообщений: 552916

Откуда: Екатеринбург

Создавать темы 12-Июл-2018 10:05

[Цитировать]

Тысяча глаз / Tausend Augen Страна: Западная Германия (ФРГ)
Жанр: Эротический триллер, Новое немецкое кино
Год выпуска: 1984
Продолжительность: 1:26:28Перевод: Субтитры Leverkuehn и Kurt Winterhaus
Субтитры: русские
Оригинальная аудиодорожка: немецкийРежиссер: Ханс-Кристоф Блюменберг / Hans-Christoph BlumenbergВ ролях: Барбара Рудник, Армин Мюллер-Шталь, Петер Краус, Вера Чехова, Гудрун Ландгребе, Вим Вендерс, Жан-Мари ШтраубОписание: Танцовщица Шерри (Барбара Рудник) вспоминает любовную историю в Австралии, но мрачный Арнольд (Армин Мюллер-Шталь) узнаёт её тайну и завлекает в пиратство, недооценив коварство таинственной Ломан (Гудрун Ландгребе) из планетария. Танцовщицы поют «Немного тоски» Холлендера, Штрауб читает лекцию о загрязнении Эльбы, а Вендерс крадет VHS из проката Веры Чеховой со словами «некоторые фильмы просто необходимо стащить». Тысячи глаз пронзают картину отсылками к истории немецкого кино, обращаясь к свойствам визуальности, но оставляя постановку холодной и бесстрастной.Доп. информация: «В Австралии я болезненным образом был предоставлен самому себе, и во мне стали возникать непрошенные осколки образов и фигур, явным образом не подходившие к жизни, которую я как кинокритик вёл уже давно…» (Блюменберг)Поворотная статья Блюменберга «В долине мёртвых глаз» (1980)Сэмпл: google.diskКачество видео: VHSRip
Формат видео: MKVВидео: XviD, 576x320, 16:9, 25 FPS, 1 227 kb/s
Аудио: MP3, 48.0 kHz, VBR, 2 channels, 41.667 FPS
Формат субтитров: softsub (SRT)

скрытый текст

1
00:01:31,550 --> 00:01:35,430
Барбара Рудник2
00:01:36,360 --> 00:01:40,210
Армин Мюллер-Шталь3
00:01:41,100 --> 00:01:44,000
Карин Бааль4
00:01:46,020 --> 00:01:48,720
Петер Краус5
00:01:51,800 --> 00:01:56,800
Тысяча глаз6
00:02:56,000 --> 00:03:00,000
Жан-Мари Штрауб
Вим Вендерс7
00:03:00,600 --> 00:03:03,600
Вера Чехова8
00:03:03,900 --> 00:03:06,800
и Гудрун Ландгребе9
00:03:06,890 --> 00:03:09,800
оператор - Мартин Шефер10
00:03:19,800 --> 00:03:22,500
композитор - Хуберт Бартоломе11
00:03:37,610 --> 00:03:41,610
режиссёр - Ханс-Кристоф Блюменберг12
00:03:49,100 --> 00:03:52,300
<b>Понедельник, ночь</b>13
00:05:46,000 --> 00:05:49,000
<i>На днях ездил на пляж Burning Palms,
моя милая.</i>14
00:05:49,000 --> 00:05:51,000
<i>Я искал тебя там.</i>15
00:05:51,000 --> 00:05:54,000
<i>Вспомнил прекрасные дни,
которые мы провели на берегу.</i>16
00:05:54,000 --> 00:05:56,300
<i>И поехал, чтобы вернуть их.</i>17
00:05:57,500 --> 00:05:59,000
<i>Я жду тебя.</i>18
00:05:59,600 --> 00:06:01,300
<i>Я люблю тебя.</i>19
00:07:45,060 --> 00:07:47,500
<i>Тысяча глаз...</i>20
00:08:04,300 --> 00:08:06,100
<i>...1000 глаз...</i>

MediaInfo

GeneralUnique ID                                : 334816294978996965453180185316701086492 (0xFBE345D8A355EA05CCC3A358DCC9A31C)Complete name                            : Tausend Augen (1984).mkvFormat                                   : MatroskaFormat version                           : Version 4 / Version 2File size                                : 843 MiBDuration                                 : 1 h 28 minOverall bit rate mode                    : VariableOverall bit rate                         : 1 335 kb/sEncoded date                             : UTC 2018-07-11 05:50:25Writing application                      : mkvmerge v24.0.0 ('Beyond The Pale') 64-bitWriting library                          : libebml v1.3.6 + libmatroska v1.4.9VideoID                                       : 1Format                                   : MPEG-4 VisualFormat profile                           : Advanced Simple@L5Format settings                          : BVOP2Format settings, BVOP                    : 2Format settings, QPel                    : NoFormat settings, GMC                     : No warppointsFormat settings, Matrix                  : Default (H.263)Codec ID                                 : V_MS/VFW/FOURCC / XVIDCodec ID/Hint                            : XviDDuration                                 : 1 h 28 minBit rate                                 : 1 227 kb/sWidth                                    : 576 pixelsHeight                                   : 320 pixelsDisplay aspect ratio                     : 16:9Frame rate mode                          : ConstantFrame rate                               : 25.000 FPSColor space                              : YUVChroma subsampling                       : 4:2:0Bit depth                                : 8 bitsScan type                                : ProgressiveCompression mode                         : LossyBits/(Pixel*Frame)                       : 0.266Stream size                              : 775 MiB (92%)Writing library                          : XviD 1.2.1 (UTC 2008-12-04)Default                                  : YesForced                                   : NoAudioID                                       : 2Format                                   : MPEG AudioFormat version                           : Version 1Format profile                           : Layer 3Format settings                          : Joint stereoCodec ID                                 : A_MPEG/L3Codec ID/Hint                            : MP3Duration                                 : 1 h 28 minBit rate mode                            : VariableBit rate                                 : 105 kb/sMinimum bit rate                         : 32.0 kb/sChannel(s)                               : 2 channelsSampling rate                            : 48.0 kHzFrame rate                               : 41.667 FPS (1152 SPF)Compression mode                         : LossyStream size                              : 66.6 MiB (8%)Writing library                          : LAME3.98rEncoding settings                        : -m j -V 5 -q 2 -lowpass 16.5 --vbr-new -b 32Default                                  : YesForced                                   : NoTextID                                       : 3Format                                   : UTF-8Codec ID                                 : S_TEXT/UTF8Codec ID/Info                            : UTF-8 Plain TextDuration                                 : 1 h 22 minBit rate                                 : 47 b/sCount of elements                        : 534Stream size                              : 29.1 KiB (0%)Default                                  : YesForced                                   : No

Скриншот c названием фильма

Скриншоты

Для скачки контента: [Установить программу-клиент] и кликнуть по - СкачатьБезопасность: клиент проверен АВ Касперского

[asmlocator.ru].t548159.torrent 
Торрент: Зарегистрирован [ 2018-07-12 10:05 ] · 0404A9C20EC9A32F63EC8600CB078A8CD7B81745

Скачать .torrent

Скачать

17 KB

Статус: проверено
Скачан: 0 раз
Размер: 843 MB
terms.php
[Профиль] [ЛС]
Показать сообщения:    
Ответить на тему

Текущее время: 19-Ноя 03:59

Часовой пояс: UTC ± 0



Вы не можете начинать темы
Вы не можете отвечать на сообщения
Вы не можете редактировать свои сообщения
Вы не можете удалять свои сообщения
Вы не можете голосовать в опросах
Вы не можете прикреплять файлы к сообщениям
Вы можете скачивать файлы