Баллада о Лефти Брауне / The Ballad of Lefty Brown (Джаред Моше / Jared Moshe) [2017, США, Вестерн, боевик, драма, приключения, BDRip] AVO (Карповский)

Ответить на тему
Статистика раздачи
Размер:  1,46 GB   |    Зарегистрирован:  6 дней   |    Скачан:  0 раз

Полного источника не было: 10 часов

 
   
 
 
Автор Сообщение

star21 ®

Пол: Женский

Стаж: 2 года 8 месяцев

Сообщений: 532154

Откуда: Екатеринбург

Создавать темы 11-Июл-2018 19:25

[Цитировать]

Баллада о Лефти Брауне / The Ballad of Lefty Brown Страна: США
Студия: Higher Content, Om Films, Armian Pictures
Жанр: Вестерн, боевик, драма, приключения
Год выпуска: 2017
Продолжительность: 01:51:44Перевод: Авторский (одноголосый закадровый) Антон Карповский
Субтитры: нет
Оригинальная аудиодорожка: нетРежиссер: Джаред Моше / Jared MosheВ ролях: Билл Пуллман, Кэти Бейкер, Питер Фонда, Джеймс Кэвизел, Джозеф Андерсон, Джо Андерсон, Диего Джозеф, Томми Флэнаган, Стивен Алан Седер, Тайсон Герхардт, Льюис ПуллманОписание: В основе сценария - простоватый герой, который почти в одиночку сражается с негодяями. Лефти Браун - старик, которому за 60, косноязычный, хромой, потрёпанный жизнью герой былых времён, о котором не слагают легенд. Скоро через маленький городок, где Лефти работает на ранчо у своего друга сенатора Эдди Джонсона, будет проложена железная дорога, а дикие времена останутся в прошлом. Но тут неожиданно убивают Эдди, а вдова покойного подозревает самого Лефти в организации убийства своего мужа. Старик обещает достать настоящего убийцу, и пускается в преследование. Но как выясняется, поймать убийцу и расправиться с ним - это даже не пол- дела. Всё гораздо сложнее , драматичнее.... Лефти придётся не просто отстоять своё честное имя, и расправиться с преступниками, ему предстоит смерить новый нарождающийся мир старыми мерками Дикого Запада.Дополнительная информация:
Автор релиза -
Заказ перевода у Антона Карповского (июль 2018) - ylnian
За сборку дороги спасибо rammzez
Источник для рипа - Blu-Ray (USA) - The.Ballad.of.Lefty.Brown.2017.BluRay.1080p.AVC.DTS-HD.MA5.1-MTeamРекламы нет!Описание из рецензии Антона Карповского
[imdb]http://www.imdb.com/title/tt4400994[/imdb]Сэмпл: https://yadi.sk/i/NKRCxmrV3Z4mYWКачество видео: BDRip
Формат видео: AVIВидео: XviD, 720x304 (2,35:1), 23.976 fps, 1413 kbps, 0.269 bit/pixel
Аудио: Русский AC3, 48000 Гц, 6ch, 448 kbps

MediaInfo

ОбщееПолное имя                               : D:\The.Ballad.of.Lefty.Brown.2017.BDRip-ylnian.aviФормат                                   : AVIФормат/Информация                        : Audio Video InterleaveРазмер файла                             : 1,46 ГбайтПродолжительность                        : 1 ч. 51 м.Общий поток                              : 1871 Кбит/секПрограмма кодирования                    : VirtualDubMod 1.5.10.3 | www.virtualdub-fr.org || (build 2550/release)Библиотека кодирования                   : VirtualDubMod build 2550/releaseВидеоИдентификатор                            : 0Формат                                   : MPEG-4 VisualПрофиль формата                          : Advanced Simple@L5Настройки формата                        : BVOP1Параметр BVOP формата                    : 1Параметр QPel формата                    : НетПараметр GMC формата                     : Без точки переходаПараметр матрицы формата                 : Default (MPEG)Идентификатор кодека                     : XVIDИдентификатор кодека/Подсказка           : XviDПродолжительность                        : 1 ч. 51 м.Битрейт                                  : 1413 Кбит/секШирина                                   : 720 пикселейВысота                                   : 304 пикселяСоотношение сторон                       : 2,35:1Частота кадров                           : 23,976 (24000/1001) кадра/секЦветовое пространство                    : YUVСубдискретизация насыщенности            : 4:2:0Битовая глубина                          : 8 битТип развёртки                            : ПрогрессивнаяМетод сжатия                             : С потерямиБит/(Пиксели*Кадры)                      : 0.269Размер потока                            : 1,10 Гбайт (76%)Библиотека кодирования                   : XviD 67АудиоИдентификатор                            : 1Формат                                   : AC-3Формат/Информация                        : Audio Coding 3Идентификатор кодека                     : 2000Продолжительность                        : 1 ч. 51 м.Вид битрейта                             : ПостоянныйБитрейт                                  : 448 Кбит/секКаналы                                   : 6 каналовРасположение каналов                     : Front: L C R, Side: L R, LFEЧастота                                  : 48,0 КГцЧастота кадров                           : 31,250 кадров/сек (1536 SPF)Битовая глубина                          : 16 битМетод сжатия                             : С потерямиРазмер потока                            : 358 Мбайт (24%)Выравнивание                             : Разделение по промежуткамПродолжительность промежутка             : 42  мс. (1,00 видеокадр)Время предзагрузки промежутка            : 500  мс.Заголовок                                : RUS - AVO - KarpovskyServiceKind/String                       : Complete Main

Для скачки контента: [Установить программу-клиент] и кликнуть по - СкачатьБезопасность: клиент проверен АВ Касперского

[asmlocator.ru].t548060.torrent 
Торрент: Зарегистрирован [ 2018-07-11 19:25 ] · A402BD6CD454AB3A83ECACF4CE14C340187798D9

Скачать .torrent

Скачать

15 KB

Статус: проверено
Скачан: 0 раз
Размер: 1,46 GB
terms.php
[Профиль] [ЛС]
Показать сообщения:    
Ответить на тему

Текущее время: 17-Июл 21:19

Часовой пояс: UTC ± 0



Вы не можете начинать темы
Вы не можете отвечать на сообщения
Вы не можете редактировать свои сообщения
Вы не можете удалять свои сообщения
Вы не можете голосовать в опросах
Вы не можете прикреплять файлы к сообщениям
Вы можете скачивать файлы