Выходные в горах. Поселок Каменномостский (Алексей Старченко) [2013, документальный, HDTV 1080i]

Ответить на тему
Статистика раздачи
Размер:  1,51 GB   |    Зарегистрирован:  7 дней   |    Скачан:  0 раз

Полного источника не было: Никогда

 
   
 
 
Автор Сообщение

star21 ®

Пол: Женский

Стаж: 2 года 8 месяцев

Сообщений: 532154

Откуда: Екатеринбург

Создавать темы 10-Июл-2018 15:45

[Цитировать]

Выходные в горах. Поселок Каменномостский Год выпуска: 2013
Страна: Россия
Студия: RTG TV
Жанр: документальный
Продолжительность: 00:25:46
Перевод: Не требуется
Режиссер: Алексей СтарченкоОписание: Каменномостский - поселок, из которого начинаются туристические маршруты по красивейшим местам Кавказских гор. Поселок Каменномостский расположен в Майкопском районе Республики Адыгея в межгорной котловине, на берегу реки Белая. По количеству уникальных памятников природы Каменномостский превосходит признанные курорты юга России.Тип релиза: HDTV 1080i
Контейнер: TSВидео: AVC, PAL, 1920x1080, 16x9, 7774Кbps, 25fps
Аудио: Русский, MP2, 2Ch, 48KHz, 192kbps

MediaInfo

ОбщееИдентификатор                            : 1 (0x1)Полное имя                               : H:\Выходные в горах. Поселок Каменномостский(RTGHD2013)new.tsФормат                                   : MPEG-TSРазмер файла                             : 1,51 ГбайтПродолжительность                        : 25 м. 46 с.Режим общего битрейта                    : ПеременныйОбщий поток                              : 8382 Кбит/секВидеоИдентификатор                            : 256 (0x100)Идентификатор меню                       : 1 (0x1)Формат                                   : AVCФормат/Информация                        : Advanced Video CodecПрофиль формата                          : High@L4.1Настройки формата                        : CABAC / 4 Ref FramesПараметр CABAC формата                   : ДаПараметр RefFrames формата               : 4 кадраИдентификатор кодека                     : 27Продолжительность                        : 25 м. 46 с.Битрейт                                  : 7774 Кбит/секШирина                                   : 1920 пикселейВысота                                   : 1080 пикселейСоотношение сторон                       : 16:9Частота кадров                           : 25,000 кадров/секЦветовое пространство                    : YUVСубдискретизация насыщенности            : 4:2:0Битовая глубина                          : 8 битТип развёртки                            : ЧересстрочнаяМетод сохранения типа развёртки          : Раздельные поляПорядок развёртки                        : Верхнее поле первоеБит/(Пиксели*Кадры)                      : 0.150Размер потока                            : 1,40 Гбайт (93%)Цветовой диапазон                        : LimitedОсновные цвета                           : BT.709Характеристики трансфера                 : BT.709Коэффициенты матрицы                     : BT.709АудиоИдентификатор                            : 302 (0x12E)Идентификатор меню                       : 1 (0x1)Формат                                   : MPEG AudioВерсия формата                           : Version 1Профиль формата                          : Layer 2Идентификатор кодека                     : 3Продолжительность                        : 25 м. 46 с.Вид битрейта                             : ПостоянныйБитрейт                                  : 192 Кбит/секКаналы                                   : 2 каналаЧастота                                  : 48,0 КГцЧастота кадров                           : 41,667 кадра/сек (1152 SPF)Метод сжатия                             : С потерямиЗадержка видео                           : -80 мс.Размер потока                            : 35,4 Мбайт (2%)Язык                                     : Russian

Скриншоты

Для скачки контента: [Установить программу-клиент] и кликнуть по - СкачатьБезопасность: клиент проверен АВ Касперского

[asmlocator.ru].t547704.torrent 
Торрент: Зарегистрирован [ 2018-07-10 15:45 ] · CCB6B2235D93CFAD20CAC34607E4E617AFB9D18D

Скачать .torrent

Скачать

16 KB

Статус: проверено
Скачан: 0 раз
Размер: 1,51 GB
terms.php
[Профиль] [ЛС]
Показать сообщения:    
Ответить на тему

Текущее время: 17-Июл 21:23

Часовой пояс: UTC ± 0



Вы не можете начинать темы
Вы не можете отвечать на сообщения
Вы не можете редактировать свои сообщения
Вы не можете удалять свои сообщения
Вы не можете голосовать в опросах
Вы не можете прикреплять файлы к сообщениям
Вы можете скачивать файлы