Мост в будущее (Алексей Чукарев) [2018, Россия, Документальный, HDTVRip]

Reply to topic
DL-List and Torrent activity
Size:  735 MB   |    Registered:  1 year 1 month   |    Completed:  0 times

Seeder not seen: Never

 
   
 
 
Author Message

star21 ®

Gender: Female

Longevity: 3 years 9 months

Posts: 551989

Location: Екатеринбург

Post 26-Jun-2018 16:40

[Quote]

Мост в будущее Страна: Россия
Студия: Телеканал "Россия", ВГТРК, Единая Медиа Группа
Жанр: Документальный
Год выпуска: 2018
Продолжительность: 00:42:32
Режиссёр: Алексей ЧукаревОписание: Крымский мост – мечта, которая стала реальностью. За этой стройкой следил весь мир, не веря особо в успех России. Штормовые ветры, сейсмоактивность, размывание грунтов – на протяжении столетий считалось, что в этом месте построить мост нельзя. Нашим мостостроителям удалось невозможное. Этот мост уже окрестили вторым БАМом и стройкой века. Кубань и Крым соединен. В рекордно короткие сроки, с новейшими технологиями, с захватывающей "Морской операцией", которую проводили на территории России впервые. Съемочная группа снимала эту увлекательную историю в течение нескольких лет. Сегодня у зрителей телеканала "Россия" есть уникальная возможность увидеть, как, преодолевая все мыслимые сложности, поэтапно создавался самый длинный мост в Европе – от черновых вариантов и творческих усилий его создателей до окончательного победного завершения.Доп. информация:
Автор релиза -
Источник для рипа - HDTV 1080i TS - моя запись с канала Россия-1 HDСэмпл: https://yadi.sk/i/AfgGmbw93XnamXРекламы нет!Качество видео: HDTVRip
Формат видео: AVIВидео: XviD, 720x400 (16:9), 25.000 fps, 2214 kbps, 0.308 bit/pixel
Аудио: Русский AC3, 48000 Гц, 2ch, 192 kbps

MediaInfo

ОбщееПолное имя                               : D:\Мост.в.будущее.2018.HDTVRip-ylnian.aviФормат                                   : AVIФормат/Информация                        : Audio Video InterleaveРазмер файла                             : 735 МбайтПродолжительность                        : 42 м. 31 с.Общий поток                              : 2416 Кбит/секПрограмма кодирования                    : VirtualDubMod 1.5.10.3 | www.virtualdub-fr.org || (build 2550/release)Библиотека кодирования                   : VirtualDubMod build 2550/releaseВидеоИдентификатор                            : 0Формат                                   : MPEG-4 VisualПрофиль формата                          : Advanced Simple@L5Настройки формата                        : BVOP1Параметр BVOP формата                    : 1Параметр QPel формата                    : НетПараметр GMC формата                     : Без точки переходаПараметр матрицы формата                 : Default (MPEG)Идентификатор кодека                     : XVIDИдентификатор кодека/Подсказка           : XviDПродолжительность                        : 42 м. 31 с.Битрейт                                  : 2214 Кбит/секШирина                                   : 720 пикселейВысота                                   : 400 пикселейСоотношение сторон                       : 16:9Частота кадров                           : 25,000 кадров/секЦветовое пространство                    : YUVСубдискретизация насыщенности            : 4:2:0Битовая глубина                          : 8 битТип развёртки                            : ПрогрессивнаяМетод сжатия                             : С потерямиБит/(Пиксели*Кадры)                      : 0.308Размер потока                            : 674 Мбайт (92%)Библиотека кодирования                   : XviD 67АудиоИдентификатор                            : 1Формат                                   : AC-3Формат/Информация                        : Audio Coding 3Идентификатор кодека                     : 2000Продолжительность                        : 42 м. 31 с.Вид битрейта                             : ПостоянныйБитрейт                                  : 192 Кбит/секКаналы                                   : 2 каналаРасположение каналов                     : Front: L RЧастота                                  : 48,0 КГцЧастота кадров                           : 31,250 кадров/сек (1536 SPF)Битовая глубина                          : 16 битМетод сжатия                             : С потерямиРазмер потока                            : 58,4 Мбайт (8%)Выравнивание                             : Разделение по промежуткамПродолжительность промежутка             : 40  мс. (1,00 видеокадр)Время предзагрузки промежутка            : 500  мс.ServiceKind/String                       : Complete Main

To download the content you need:
1. Download and install torrent client [for Windows] or for mobile system
2. Click on [Download]
Attention.
If the test YOU are NOT a ROBOT - does not work, then You are using an outdated browser.
Install the current browser and click on [Download]
Security: torrent client is allowed by Kaspersky.

[asmlocator.ru].t544332.torrent 
Torrent: Registered [ 2018-06-26 16:40 ] · 5D354E750195D4587B41D19460898AE36EC3BADC

Download .torrent

Download

15 KB

Status: checked
Completed: 0 times
Size: 735 MB
terms.php
[Profile] [PM]
Display posts:    
Reply to topic

Current time is: 23-Aug 16:44

All times are UTC ± 0



You cannot post new topics in this forum
You cannot reply to topics in this forum
You cannot edit your posts in this forum
You cannot delete your posts in this forum
You cannot vote in polls in this forum
You cannot attach files in this forum
You can download files in this forum