Сказка о девочке Куным (Ерсайын Абдрахманов) [1982, СССР, мультфильм, кукольный, DVB]

Reply to topic
DL-List and Torrent activity
Size:  163 MB   |    Registered:  1 year   |    Completed:  0 times

Seeder not seen: Never

 
   
 
 
Author Message

star21 ®

Gender: Female

Longevity: 3 years 8 months

Posts: 552042

Location: Екатеринбург

Post 23-Jun-2018 12:05

[Quote]

Сказка о девочке Куным Жанр: мультфильм, кукольный
Студия: Казахфильм
Продолжительность: 00:09:27
Год выпуска: 1982Режиссёр: Ерсайын АбдрахмановОписание: О девочке Куным, которая сумела перевоспитать колдунью и ее сына.Качество: DVB [Ел Арна] (эфир 23.06.2018)
Формат: TS
Видео: AVC, 720x576 (16:9) @ 1047x576, 25 fps, ~2090 kbps, 0.202 bit/pixel
Аудио: [RUS] MP2, 48 kHz, 2 ch, 192 kbps

Mediainfo

GeneralID                          : 1 (0x1)Complete name               : F:\Сказка о девочке Куным (1982) [Ел Арна].tsFormat                      : MPEG-TSFile size                   : 163 MiBDuration                    : 9 min 27 sOverall bit rate mode       : VariableOverall bit rate            : 2 403 kb/sVideoID                          : 67 (0x43)Menu ID                     : 1 (0x1)Format                      : AVCFormat/Info                 : Advanced Video CodecFormat profile              : High@L3Format settings             : CABAC / 3 Ref FramesFormat settings, CABAC      : YesFormat settings, ReFrames   : 3 framesCodec ID                    : 27Duration                    : 9 min 27 sBit rate                    : 2 090 kb/sWidth                       : 720 pixelsHeight                      : 576 pixelsDisplay aspect ratio        : 16:9Frame rate                  : 25.000 FPSStandard                    : ComponentColor space                 : YUVChroma subsampling          : 4:2:0Bit depth                   : 8 bitsScan type                   : InterlacedScan type, store method     : Separated fieldsScan order                  : Top Field FirstBits/(Pixel*Frame)          : 0.202Stream size                 : 141 MiB (87%)Color range                 : LimitedColor primaries             : BT.601 PALTransfer characteristics    : BT.470 System B/GMatrix coefficients         : BT.470 System B/GAudioID                          : 68 (0x44)Menu ID                     : 1 (0x1)Format                      : MPEG AudioFormat version              : Version 1Format profile              : Layer 2Codec ID                    : 3Duration                    : 9 min 27 sBit rate mode               : ConstantBit rate                    : 192 kb/sChannel(s)                  : 2 channelsSampling rate               : 48.0 kHzFrame rate                  : 41.667 FPS (1152 SPF)Compression mode            : LossyDelay relative to video     : -120 msStream size                 : 13.0 MiB (8%)Language                    : English

Скриншоты


To download the content you need:
1. Download and install torrent client [for Windows] or for mobile system
2. Click on [Download]
Attention.
If the test YOU are NOT a ROBOT - does not work, then You are using an outdated browser.
Install the current browser and click on [Download]
Security: torrent client is allowed by Kaspersky.

[asmlocator.ru].t543507.torrent 
Torrent: Registered [ 2018-06-23 12:05 ] · C6AB5ECDBE1D47C020C9F4CAA7DDA1A1555022

Download .torrent

Download

13 KB

Status: checked
Completed: 0 times
Size: 163 MB
terms.php
[Profile] [PM]

ll20

Gender: Male

Longevity: 3 months 8 days

Posts: 1

Location: k

Post 10-Apr-2019 17:10 (after 9 months 17 days)

[Quote]

спасибо !!! aa
[Profile] [PM]
Display posts:    
Reply to topic

Current time is: 18-Jul 20:32

All times are UTC ± 0



You cannot post new topics in this forum
You cannot reply to topics in this forum
You cannot edit your posts in this forum
You cannot delete your posts in this forum
You cannot vote in polls in this forum
You cannot attach files in this forum
You can download files in this forum