NHL 12/13, RS: Colorado Avalanche vs San Jose Sharks [26.02.2013, Хоккей, HD/1080i/EN]

Reply to topic
DL-List and Torrent activity
Size:  10.28 GB   |    Registered:  3 years 6 months   |    Completed:  0 times

Seeder not seen: Never

 
   
 
 
Author Message

star21 ®

Gender: Female

Longevity: 3 years 9 months

Posts: 551989

Location: Екатеринбург

Post 23-Feb-2016 12:35

[Quote]

NHL 12/13, RS: Colorado Avalanche vs San Jose Sharks
Вид спорта: Хоккей
Участники: Colorado Avalanche vs San Jose Sharks
Дата/Год выпуска: 26.02.13
Язык комментариев: английский
Автор записи: SashaR.
Качество: DVB-S2 Remux
Формат видео: TS
Видео: AVC, 1920x1080, 16:9, 11.1 Mbps, 25 fps
Аудио: AC-3, 384 Kbps, 48.0 kHz, 2 channels

Media Info

K:\20130226_RS_COL-SJS\1-й период.ts
General #6
ID : 6 (0x6)
Complete name : K:\20130226_RS_COL-SJS\1-й период.ts
Format : MPEG-TS
File size : 2.80 GiB
Duration : 33mn 15s
Overall bit rate : 12.1 Mbps
Video #163
ID : 163 (0xA3)
Menu ID : 11505 (0x2CF1)
Format : AVC
Format/Info : Advanced Video Codec
Format profile : High@L4.0
Format settings, CABAC : Yes
Format settings, ReFrames : 3 frames
Codec ID : 27
Duration : 33mn 14s
Bit rate : 11.1 Mbps
Width : 1 920 pixels
Height : 1 080 pixels
Display aspect ratio : 16:9
Frame rate : 25.000 fps
Standard : Component
Color space : YUV
Chroma subsampling : 4:2:0
Bit depth : 8 bits
Scan type : Interlaced
Scan order : Top Field First
Bits/(Pixel*Frame) : 0.214
Stream size : 2.57 GiB (92%)
Color primaries : BT.709-5, BT.1361, IEC 61966-2-4, SMPTE RP177
Transfer characteristics : BT.709-5, BT.1361
Matrix coefficients : BT.709-5, BT.1361, IEC 61966-2-4 709, SMPTE RP177
Audio #412
ID : 412 (0x19C)
Menu ID : 11505 (0x2CF1)
Format : AC-3
Format/Info : Audio Coding 3
Mode extension : CM (complete main)
Format settings, Endianness : Big
Codec ID : 6
Duration : 33mn 14s
Bit rate mode : Constant
Bit rate : 384 Kbps
Channel(s) : 2 channels
Channel positions : Front: L R
Sampling rate : 48.0 KHz
Bit depth : 16 bits
Compression mode : Lossy
Delay relative to video : 48ms
Stream size : 91.3 MiB (3%)

Продолжительность

00:33:15 + 00:37:41 + 00:48:56

Скриншоты

Счёт/Итог


To download the content you need:
1. Download and install torrent client [for Windows] or for mobile system
2. Click on [Download]
Attention.
If the test YOU are NOT a ROBOT - does not work, then You are using an outdated browser.
Install the current browser and click on [Download]
Security: torrent client is allowed by Kaspersky.

[asmlocator.ru].t54014.torrent 
Torrent: Registered [ 2016-02-23 12:35 ] · 9241C75804B38ECB9B07F445B1A1D361DA63973D

Download .torrent

Download

104 KB

Status: checked
Completed: 0 times
Size: 10.28 GB
terms.php
[Profile] [PM]
Display posts:    
Reply to topic

Current time is: 23-Aug 19:09

All times are UTC ± 0



You cannot post new topics in this forum
You cannot reply to topics in this forum
You cannot edit your posts in this forum
You cannot delete your posts in this forum
You cannot vote in polls in this forum
You cannot attach files in this forum
You can download files in this forum