Greatest Games In Stanley Cup History: Game 7 Collection [2007, Хоккей, DVDRip]

Ответить на тему
Статистика раздачи
Размер:  9,53 GB   |    Зарегистрирован:  3 года 8 месяцев   |    Скачан:  0 раз

Полного источника не было: Никогда

 
   
 
 
Автор Сообщение

star21 ®

Пол: Женский

Стаж: 4 года

Сообщений: 551946

Откуда: Екатеринбург

Создавать темы 23-Фев-2016 07:10

[Цитировать]

Greatest Games In Stanley Cup History: Game 7 Collection
Вид спорта: Хоккей
Дата/Год выпуска: 2007
Язык комментариев: Английский-Описание: You can revisit some of the greatest games in Stanley Cup® history by watching all 7 discs in the Warner Home Video® NHL® Greatest Games in Stanley Cup® History DVD set. Game action takes you back over 60 years and brings you up to the 2006 Stanley Cup® finals between Carolina and Edmonton.
7-disc NHL® DVD set (6 game 7's in their entirety, plus highlights from all Game 7's in NHL History
2006 Carolina vs. Edmonton
2004 Tampa vs. Calgary
2003 New Jersey vs. Anaheim
2001 Colorado vs. New Jersey
1994 New York Rangers vs. Vancouver
1987 Edmonton vs. Philadelphia Flyers
1971 Montreal vs. Chicago
1965 Montreal vs. Chicago
1964 Toronto vs. Detroit
1955 Detroit vs. Montreal
1954 Detroit vs. Montreal
1950 Detroit vs. New York Rangers
1945 Toronto vs. Detroit
1942 Toronto vs. Detroit-
Автор рипа/записи: tommyganZ/ApoTheoses
Доп. информация:
http://www.dvdverdict.com/reviews/greatestgame7.php

DVDRip сделан из этих DVD

, , , , , , .

Описание к выпускам, скриншоты и тех.данные

Greatest Games in Stanley Cup History DISC1

NHL '06, SC final, матч №7: Edmonton Oilers vs Carolina Hurricanes
(GREATEST GAMES IN STANLEY CUP HISTORY - Game 7 Collection, Disk №1)
Год выпуска: 19.06.2006
Качество: DVDRip
Формат видео: AVI
Видео: XVID 640x464 29.97fps 1415Kbps
Аудио: Dolby AC3 48000Hz stereo 192Kbps

Тех.данные

Формат : AVI
Формат/Информация : Audio Video Interleave
Размер файла : 1,36 Гбайт
Продолжительность : 2 ч. 0 м.
Общий поток : 1620 Кбит/сек
Программа кодирования : VirtualDubMod 1.5.10.2 (build 2540/release)
Библиотека кодирования : VirtualDubMod build 2540/release
Видео
Идентификатор : 0
Формат : MPEG-4 Visual
Профиль формата : Advanced Simple@L5
Параметр BVOP формата : 2
Параметр QPel формата : Нет
Параметр GMC формата : Без точки перехода
Параметр матрицы формата : Default (H.263)
Режим смешивания : Сжатый битовый поток
Идентификатор кодека : XVID
Идентификатор кодека/Подсказка : XviD
Продолжительность : 2 ч. 0 м.
Битрейт : 1416 Кбит/сек
Ширина : 640 пикселей
Высота : 464 пикселя
Соотношение сторон : 1,379
Частота кадров : 29,970 кадров/сек
Цветовое пространство : YUV
Субдискретизация насыщенности : 4:2:0
Битовая глубина : 8 бит
Тип развёртки : Прогрессивная
Метод сжатия : С потерями
Бит/(Пиксели*Кадры) : 0.159
Размер потока : 1,19 Гбайт (87%)
Библиотека кодирования : XviD 1.2.0.dev47 (UTC 2006-11-01)
Аудио
Идентификатор : 1
Формат : AC-3
Формат/Информация : Audio Coding 3
Расширение режима : CM (complete main)
Идентификатор кодека : 2000
Продолжительность : 2 ч. 0 м.
Вид битрейта : Постоянный
Битрейт : 192 Кбит/сек
Каналы : 2 канала
Расположение каналов : Front: L R
Частота : 48,0 КГц
Битовая глубина : 16 бит
Метод сжатия : С потерями
Размер потока : 165 Мбайт (12%)
Выравнивание : Разделение по промежуткам
Продолжительность промежутка : 33 мс. (1,00 видеокадр)
Время предзагрузки промежутка : 500 мс.

Продолжительность

02:00:13

Скриншоты (без счёта)


Счёт/Итог

Hurricanes vs Oilers 3:1

Greatest Games in Stanley Cup History DISC2

NHL '04, SC final, матч №7: Tampa Bay Lightning vs Calgary Flames
(GREATEST GAMES IN STANLEY CUP HISTORY - Game 7 Collection, Disk №2)
Год выпуска: 07.06.2004
Качество: DVDRip
Формат видео: AVI
Видео: XVID 640x464 29.97fps 1453Kbps
Аудио: Dolby AC3 48000Hz stereo 192Kbps

Тех.данные

Формат : AVI
Формат/Информация : Audio Video Interleave
Размер файла : 1,36 Гбайт
Продолжительность : 1 ч. 57 м.
Общий поток : 1657 Кбит/сек
Программа кодирования : VirtualDubMod 1.5.10.2 (build 2540/release)
Библиотека кодирования : VirtualDubMod build 2540/release
Видео
Идентификатор : 0
Формат : MPEG-4 Visual
Профиль формата : Advanced Simple@L5
Параметр BVOP формата : 2
Параметр QPel формата : Нет
Параметр GMC формата : Без точки перехода
Параметр матрицы формата : Default (H.263)
Режим смешивания : Сжатый битовый поток
Идентификатор кодека : XVID
Идентификатор кодека/Подсказка : XviD
Продолжительность : 1 ч. 57 м.
Битрейт : 1453 Кбит/сек
Ширина : 640 пикселей
Высота : 464 пикселя
Соотношение сторон : 1,379
Частота кадров : 29,970 кадров/сек
Цветовое пространство : YUV
Субдискретизация насыщенности : 4:2:0
Битовая глубина : 8 бит
Тип развёртки : Прогрессивная
Метод сжатия : С потерями
Бит/(Пиксели*Кадры) : 0.163
Размер потока : 1,19 Гбайт (88%)
Библиотека кодирования : XviD 1.2.0.dev47 (UTC 2006-11-01)
Аудио
Идентификатор : 1
Формат : AC-3
Формат/Информация : Audio Coding 3
Расширение режима : CM (complete main)
Идентификатор кодека : 2000
Продолжительность : 1 ч. 57 м.
Вид битрейта : Постоянный
Битрейт : 192 Кбит/сек
Каналы : 2 канала
Расположение каналов : Front: L R
Частота : 48,0 КГц
Битовая глубина : 16 бит
Метод сжатия : С потерями
Размер потока : 161 Мбайт (12%)
Выравнивание : Разделение по промежуткам
Продолжительность промежутка : 33 мс. (1,00 видеокадр)
Время предзагрузки промежутка : 500 мс.

Продолжительность

01:57:33

Скриншоты (без счёта)


Счёт/Итог

Lightning vs. Flames 2:1

Greatest Games in Stanley Cup History DISC3

NHL '03, SC final, матч №7: Mighty Ducks vs. New Jersey Devils
(GREATEST GAMES IN STANLEY CUP HISTORY - Game 7 Collection, Disk №3)
Год выпуска: 09.06.2003
Качество: DVDRip
Формат видео: AVI
Видео: XVID 640x464 29.97fps 1595Kbps
Аудио: Dolby AC3 48000Hz stereo 192Kbps

Тех.данные

Формат : AVI
Формат/Информация : Audio Video Interleave
Размер файла : 1,36 Гбайт
Продолжительность : 1 ч. 48 м.
Общий поток : 1799 Кбит/сек
Программа кодирования : VirtualDubMod 1.5.10.2 (build 2540/release)
Библиотека кодирования : VirtualDubMod build 2540/release
Видео
Идентификатор : 0
Формат : MPEG-4 Visual
Профиль формата : Advanced Simple@L5
Параметр BVOP формата : 2
Параметр QPel формата : Нет
Параметр GMC формата : Без точки перехода
Параметр матрицы формата : Default (H.263)
Режим смешивания : Сжатый битовый поток
Идентификатор кодека : XVID
Идентификатор кодека/Подсказка : XviD
Продолжительность : 1 ч. 48 м.
Битрейт : 1595 Кбит/сек
Ширина : 640 пикселей
Высота : 464 пикселя
Соотношение сторон : 1,379
Частота кадров : 29,970 кадров/сек
Цветовое пространство : YUV
Субдискретизация насыщенности : 4:2:0
Битовая глубина : 8 бит
Тип развёртки : Прогрессивная
Метод сжатия : С потерями
Бит/(Пиксели*Кадры) : 0.179
Размер потока : 1,21 Гбайт (89%)
Библиотека кодирования : XviD 1.2.0.dev47 (UTC 2006-11-01)
Аудио
Идентификатор : 1
Формат : AC-3
Формат/Информация : Audio Coding 3
Расширение режима : CM (complete main)
Идентификатор кодека : 2000
Продолжительность : 1 ч. 48 м.
Вид битрейта : Постоянный
Битрейт : 192 Кбит/сек
Каналы : 2 канала
Расположение каналов : Front: L R
Частота : 48,0 КГц
Битовая глубина : 16 бит
Метод сжатия : С потерями
Размер потока : 149 Мбайт (11%)
Выравнивание : Разделение по промежуткам
Продолжительность промежутка : 33 мс. (1,00 видеокадр)
Время предзагрузки промежутка : 500 мс.

Продолжительность

01:48:16

Скриншоты (без счёта)


Счёт/Итог

Devils vs. Mighty Ducks 3:0

Greatest Games in Stanley Cup History DISC4

NHL '01, SC final, матч №7: Colorado Avalanche vs New Jersey Devils
(GREATEST GAMES IN STANLEY CUP HISTORY - Game 7 Collection, Disk №4)
Год выпуска: 09.06.2001
Качество: DVDRip
Формат видео: AVI
Видео: XVID 608x448 29.97fps 1205Kbps
Аудио: Dolby AC3 48000Hz stereo 192Kbps

Тех.данные

Формат : AVI
Формат/Информация : Audio Video Interleave
Размер файла : 1,36 Гбайт
Продолжительность : 2 ч. 18 м.
Общий поток : 1409 Кбит/сек
Программа кодирования : VirtualDubMod 1.5.10.2 (build 2540/release)
Библиотека кодирования : VirtualDubMod build 2540/release
Видео
Идентификатор : 0
Формат : MPEG-4 Visual
Профиль формата : Advanced Simple@L5
Параметр BVOP формата : 2
Параметр QPel формата : Нет
Параметр GMC формата : Без точки перехода
Параметр матрицы формата : Default (H.263)
Режим смешивания : Сжатый битовый поток
Идентификатор кодека : XVID
Идентификатор кодека/Подсказка : XviD
Продолжительность : 2 ч. 18 м.
Битрейт : 1205 Кбит/сек
Ширина : 608 пикселей
Высота : 448 пикселей
Соотношение сторон : 4:3
Частота кадров : 29,970 кадров/сек
Цветовое пространство : YUV
Субдискретизация насыщенности : 4:2:0
Битовая глубина : 8 бит
Тип развёртки : Прогрессивная
Метод сжатия : С потерями
Бит/(Пиксели*Кадры) : 0.148
Размер потока : 1,16 Гбайт (86%)
Библиотека кодирования : XviD 1.2.0.dev47 (UTC 2006-11-01)
Аудио
Идентификатор : 1
Формат : AC-3
Формат/Информация : Audio Coding 3
Расширение режима : CM (complete main)
Идентификатор кодека : 2000
Продолжительность : 2 ч. 18 м.
Вид битрейта : Постоянный
Битрейт : 192 Кбит/сек
Каналы : 2 канала
Расположение каналов : Front: L R
Частота : 48,0 КГц
Битовая глубина : 16 бит
Метод сжатия : С потерями
Размер потока : 190 Мбайт (14%)
Выравнивание : Разделение по промежуткам
Продолжительность промежутка : 33 мс. (1,00 видеокадр)
Время предзагрузки промежутка : 500 мс.

Продолжительность

02:18:21

Скриншоты (без счёта)


Счёт/Итог

Avalanche vs. NJ Devils 3:1

Greatest Games in Stanley Cup History DISC5

NHL '94, SC final, матч №7: Vancouver Canucks vs New York Rangers
(GREATEST GAMES IN STANLEY CUP HISTORY - Game 7 Collection, Disk №5)
Год выпуска: 14.06.1994
Качество: DVDRip
Формат видео: AVI
Видео: XVID 608x448 29.97fps 1209Kbps
Аудио: Dolby AC3 48000Hz stereo 192Kbps

Тех.данные

Формат : AVI
Формат/Информация : Audio Video Interleave
Размер файла : 1,36 Гбайт
Продолжительность : 2 ч. 18 м.
Общий поток : 1413 Кбит/сек
Программа кодирования : VirtualDubMod 1.5.10.2 (build 2540/release)
Библиотека кодирования : VirtualDubMod build 2540/release
Видео
Идентификатор : 0
Формат : MPEG-4 Visual
Профиль формата : Advanced Simple@L5
Параметр BVOP формата : 2
Параметр QPel формата : Нет
Параметр GMC формата : Без точки перехода
Параметр матрицы формата : Default (H.263)
Режим смешивания : Сжатый битовый поток
Идентификатор кодека : XVID
Идентификатор кодека/Подсказка : XviD
Продолжительность : 2 ч. 18 м.
Битрейт : 1209 Кбит/сек
Ширина : 608 пикселей
Высота : 448 пикселей
Соотношение сторон : 4:3
Частота кадров : 29,970 кадров/сек
Цветовое пространство : YUV
Субдискретизация насыщенности : 4:2:0
Битовая глубина : 8 бит
Тип развёртки : Прогрессивная
Метод сжатия : С потерями
Бит/(Пиксели*Кадры) : 0.148
Размер потока : 1,17 Гбайт (86%)
Библиотека кодирования : XviD 1.2.0.dev47 (UTC 2006-11-01)
Аудио
Идентификатор : 1
Формат : AC-3
Формат/Информация : Audio Coding 3
Расширение режима : CM (complete main)
Идентификатор кодека : 2000
Продолжительность : 2 ч. 18 м.
Вид битрейта : Постоянный
Битрейт : 192 Кбит/сек
Каналы : 2 канала
Расположение каналов : Front: L R
Частота : 48,0 КГц
Битовая глубина : 16 бит
Метод сжатия : С потерями
Размер потока : 190 Мбайт (14%)
Выравнивание : Разделение по промежуткам
Продолжительность промежутка : 33 мс. (1,00 видеокадр)
Время предзагрузки промежутка : 500 мс.

Продолжительность

02:18:00

Скриншоты (без счёта)


Счёт/Итог

NY Rangers vs. Vancouver Canucks 3-2

Greatest Games in Stanley Cup History DISC6

NHL '87, SC final, матч №7: Edmonton Oilers vs Philadelphia Flyers
(GREATEST GAMES IN STANLEY CUP HISTORY - Game 7 Collection, Disk №6)
Год выпуска: 31.05.1987
Качество: DVDRip
Формат видео: AVI
Видео: XVID 640x464 29.97fps 1578Kbps
Аудио: Dolby AC3 48000Hz stereo 192Kbps

Тех.данные

Формат : AVI
Формат/Информация : Audio Video Interleave
Размер файла : 1,36 Гбайт
Продолжительность : 1 ч. 49 м.
Общий поток : 1783 Кбит/сек
Программа кодирования : VirtualDubMod 1.5.10.2 (build 2540/release)
Библиотека кодирования : VirtualDubMod build 2540/release
Видео
Идентификатор : 0
Формат : MPEG-4 Visual
Профиль формата : Advanced Simple@L5
Параметр BVOP формата : 2
Параметр QPel формата : Нет
Параметр GMC формата : Без точки перехода
Параметр матрицы формата : Default (H.263)
Режим смешивания : Сжатый битовый поток
Идентификатор кодека : XVID
Идентификатор кодека/Подсказка : XviD
Продолжительность : 1 ч. 49 м.
Битрейт : 1579 Кбит/сек
Ширина : 640 пикселей
Высота : 464 пикселя
Соотношение сторон : 1,379
Частота кадров : 29,970 кадров/сек
Цветовое пространство : YUV
Субдискретизация насыщенности : 4:2:0
Битовая глубина : 8 бит
Тип развёртки : Прогрессивная
Метод сжатия : С потерями
Бит/(Пиксели*Кадры) : 0.177
Размер потока : 1,21 Гбайт (89%)
Библиотека кодирования : XviD 1.2.0.dev47 (UTC 2006-11-01)
Аудио
Идентификатор : 1
Формат : AC-3
Формат/Информация : Audio Coding 3
Расширение режима : CM (complete main)
Идентификатор кодека : 2000
Продолжительность : 1 ч. 49 м.
Вид битрейта : Постоянный
Битрейт : 192 Кбит/сек
Каналы : 2 канала
Расположение каналов : Front: L R
Частота : 48,0 КГц
Битовая глубина : 16 бит
Метод сжатия : С потерями
Размер потока : 150 Мбайт (11%)
Выравнивание : Разделение по промежуткам
Продолжительность промежутка : 33 мс. (1,00 видеокадр)
Время предзагрузки промежутка : 500 мс.

Продолжительность

01:49:19

Скриншоты (без счёта)


Счёт/Итог

Oilers vs. Flyers 3:1

Greatest Games in Stanley Cup History DISC7

GREATEST GAMES IN STANLEY CUP HISTORY, Disk №7Год выпуска:
18 мая 1971 Montreal vs. Chicago 3:2
1 мая 1965 Montreal vs. Chicago 4:0
25 апреля 1964 Toronto vs. Detroit 4:0
14 апреля 1955 Detroit vs. Montreal 3:1
16 апреля 1954 Detroit vs. Montreal OT 2:1
23 апреля 1950 Detroit vs. NY Rangers 2OT 4:3
22 апреля 1945 Toronto vs. Detroit 2:1
18 апреля 1942 Toronto vs. Detroit 3:1
Качество: DVDRip
Формат видео: AVI
Видео: XVID 640x464 29.97fps 2495Kbps
Аудио: Dolby AC3 48000Hz stereo 192Kbps

Тех.данные

Продолжительность

01:12:05

Скриншоты


Чтобы скачать этот контент, Вам необходимо:
1. Скачать и установить торрент-клиент [клик для Windows], (для мобильного найдите на Play Маркет).
2. Кликнуть по [Скачать]


Внимание.
Если проверка ВЫ НЕ РОБОТ - не работает, значит Вы используете устаревший браузер.
Установите актуальный браузер и повторно кликните по [Скачать]
Безопасность: торрент-клиент разрешён АВ Касперского.

[asmlocator.ru].t53816.torrent 
Торрент: Зарегистрирован [ 2016-02-23 07:10 ] · F48A7435891818CF7A563727FFDA8DEC6552F0BE

Скачать .torrent

Скачать

49 KB

Статус: проверено
Скачан: 0 раз
Размер: 9,53 GB
terms.php
[Профиль] [ЛС]
Показать сообщения:    
Ответить на тему

Текущее время: 13-Ноя 16:03

Часовой пояс: UTC ± 0



Вы не можете начинать темы
Вы не можете отвечать на сообщения
Вы не можете редактировать свои сообщения
Вы не можете удалять свои сообщения
Вы не можете голосовать в опросах
Вы не можете прикреплять файлы к сообщениям
Вы можете скачивать файлы
Верим фактам, а не вранью Путина! Факт, что Правительство ведёт Россию к истреблению.
Так как численность населения падает, даже не смотря на приток эмигрантов!
Русская нация вымирает и вырождается, смешиваясь с эмигрантами!
Факт, что военных и граждан предприятий заставляют голосовать за партию Единая Россия и Путина
ПОД СТРАХОМ УВОЛЬНЕНИЯ!
Нам не нужно Правительство, блокирующее личную жизнь, интернет, нарушающее сохранность данных.
Все эти действия финансируются за счёт народа!