NHL \'08, SC Final, матч 6: Detroit Red Wings vs Pittsburgh Penguins [04.06.2008, хоккей, HD/MPEG2/1080i/EN]

Reply to topic
DL-List and Torrent activity
Size:  16.89 GB   |    Registered:  3 years 4 months   |    Completed:  0 times

Seeder not seen: Never

 
   
 
 
Author Message

star21 ®

Gender: Female

Longevity: 3 years 8 months

Posts: 552034

Location: Екатеринбург

Post 23-Feb-2016 04:05

[Quote]

Detroit Red Wings vs Pittsburgh Penguins
Mellon Arena
Год выпуска: 2014
Вид спорта: Хоккей
Комментарий: Профессиональный
Язык комментариев: Английский
Качество: HDTV
Ripper: olegzzka
Формат:TS
Видео кодек: MPEG2
Аудио кодек: AC3
Видео: MPEG2, 16:9 1920x1080,29.970fps ~18Mbps
Аудио: AC3 6ch, 48000Hz 384Kbps

MediaInfo

General
ID : 1 (0x1)
Complete name : G:\Commercial Games 1080i\NHL StanleyCup 2008.G6.Detroit Red Wings vs Pittsburgh Penguins.NHLNetworkHD.MPEG2.AC3.30fps.1080i-
Format : MPEG-TS
File size : 16.9 GiB
Duration : 2h 10mn
Overall bit rate mode : Variable
Overall bit rate : 18.5 Mbps
Video
ID : 547 (0x223)
Menu ID : 1 (0x1)
Format : MPEG Video
Format version : Version 2
Format profile : Main@High
Format settings, BVOP : Yes
Format settings, Matrix : Custom
Format settings, GOP : M=3, N=15
Format settings, picture structure : Frame
Codec ID : 2
Duration : 2h 10mn
Bit rate mode : Variable
Bit rate : 17.0 Mbps
Maximum bit rate : 18.0 Mbps
Width : 1 920 pixels
Height : 1 080 pixels
Display aspect ratio : 16:9
Active Format Description : Letterbox 16:9 image, with alternative 4:3 center
Frame rate : 29.970 fps
Color space : YUV
Chroma subsampling : 4:2:0
Bit depth : 8 bits
Scan type : Interlaced
Scan order : Top Field First
Compression mode : Lossy
Bits/(Pixel*Frame) : 0.274
Time code of first frame : 00:00:00;00
Time code source : Group of pictures header
Stream size : 15.5 GiB (92%)
Audio #1
ID : 545 (0x221)
Menu ID : 1 (0x1)
Format : AC-3
Format/Info : Audio Coding 3
Mode extension : CM (complete main)
Format settings, Endianness : Big
Codec ID : 129
Duration : 2h 10mn
Bit rate mode : Constant
Bit rate : 384 Kbps
Channel(s) : 6 channels
Channel positions : Front: L C R, Side: L R, LFE
Sampling rate : 48.0 KHz
Bit depth : 16 bits
Compression mode : Lossy
Delay relative to video : 21ms
Stream size : 358 MiB (2%)
Language : English
Audio #2
ID : 546 (0x222)
Menu ID : 1 (0x1)
Format : AC-3
Format/Info : Audio Coding 3
Mode extension : CM (complete main)
Format settings, Endianness : Big
Codec ID : 129
Duration : 2h 10mn
Bit rate mode : Constant
Bit rate : 192 Kbps
Channel(s) : 2 channels
Channel positions : Front: L R
Sampling rate : 48.0 KHz
Bit depth : 16 bits
Compression mode : Lossy
Delay relative to video : 21ms
Stream size : 179 MiB (1%)
Language : Spanish

Продолжительность

02:10:24

Скриншоты

Счёт/Итог

DET 3-2 PIT

To download the content you need:
1. Download and install torrent client [for Windows] or for mobile system
2. Click on [Download]
Attention.
If the test YOU are NOT a ROBOT - does not work, then You are using an outdated browser.
Install the current browser and click on [Download]
Security: torrent client is allowed by Kaspersky.

[asmlocator.ru].t53697.torrent 
Torrent: Registered [ 2016-02-23 04:05 ] · D98C8504E2CB4B6FD1D4339769E0071D916B0729

Download .torrent

Download

43 KB

Status: checked
Completed: 0 times
Size: 16.89 GB
terms.php
[Profile] [PM]
Display posts:    
Reply to topic

Current time is: 21-Jul 09:58

All times are UTC ± 0



You cannot post new topics in this forum
You cannot reply to topics in this forum
You cannot edit your posts in this forum
You cannot delete your posts in this forum
You cannot vote in polls in this forum
You cannot attach files in this forum
You can download files in this forum