Кубок РХЛ-15, 1/2 финала, матч 4: Мордовия - ХК Ростов [27.03.2015, Хоккей, SD/MPEG/Интершум]

Reply to topic
DL-List and Torrent activity
Size:  1.51 GB   |    Registered:  3 years 3 months   |    Completed:  0 times

Seeder not seen: Never

 
   
 
 
Author Message

star21 ®

Gender: Female

Longevity: 3 years 6 months

Posts: 552204

Location: Екатеринбург

Post 23-Feb-2016 01:00

[Quote]

Кубок РХЛ-15, 1/2 финала, матч 4: Мордовия - ХК Ростов
Вид спорта: Хоккей
Участники: ХК Ростов, ХК Мордовия
Дата/Год выпуска: 27/03/2015
Язык комментариев: Интершум
Описание: Мордовия принимает Ростов.
Запись велась с сайта мордовии и была проведена на ustream tv, поэтому часто реклама была во время записи, некоторые моменты игры из-за этого отсутствуют.
Автор рипа/записи: Собственный
Качество: SD
Формат видео: AVI
Видео: MPEG1, 840x504, 1 569 Kbps, 30.000 fps
Аудио: MPEG Audio, 192 kbps, 48.0 kHz, stereo, 2 channels

MediaInfo

Video
ID : 0
Format : MPEG Video
Format version : Version 1
Format settings, BVOP : No
Format settings, Matrix : Default
Codec ID : MPEG
Codec ID/Info : Chromatic MPEG 1 Video I Frame
Duration : 2h 1mn
Bit rate mode : Variable
Bit rate : 1 569 Kbps
Width : 840 pixels
Height : 504 pixels
Display aspect ratio : 1.667
Frame rate : 30.000 fps
Color space : YUV
Chroma subsampling : 4:2:0
Bit depth : 8 bits
Scan type : Progressive
Compression mode : Lossy
Bits/(Pixel*Frame) : 0.124
Stream size : 1.33 GiB (88%)
ID : 1
Format : MPEG Audio
Format version : Version 1
Format profile : Layer 2
Codec ID : 50
Duration : 2h 1mn
Bit rate mode : Constant
Bit rate : 192 Kbps
Channel(s) : 2 channels
Sampling rate : 48.0 KHz
Compression mode : Lossy
Stream size : 167 MiB (11%)
Alignment : Aligned on interleaves
Interleave, duration : 24 ms (0.72 video frame)

Составы

Мордовия: 1 Павел ПОПКОВ, 4 Артем ИНКИН Павел ГОРДИН, 3 Сергей ГОРЯЧЕВ, 5 Александр БРЫКИН, 7 Андрей БЛОХИН, 54 Николай ТУГОЛУКОВ, 55 Василий КРУЖИЛИН, 67 Евгений ВАГИН, 75 Иван ПЕТРАКОВ, 8 Виктор ФИТИСОВ, 12 Дмитрий ЛЕДЕНЦОВ,13 Ильгиз ГАЛИАКБИРОВ, 14 Дмитрий САРАЗОВ, 15 Андрей БАДРУТДИНОВ, 16 Дмитрий ОБРЕЖА, 42 Евгений САФРОНОВ, 63 Владимир ИВАНЦОВ, 72 Дмитрий САЛОМАТОВ, 81 Сергей ВОЛКОВ, 89 Павел МЕДВЕДЕВ, 91 Михаил АБДУЛКАДИРОВ
Ростов: 1 Михаил МИХАЙЛОВ, 29 Никита СТАРИКОВ – 4 Игорь ЧУКАНОВ, 34 Максим БЛИНОВ, 41 Дмитрий КУЗЬМЕНКО, 48 Кирилл БАБИКОВ, 50 Алексей САВИНОВ, 55 Игорь КАРПОВ, 75 Станислав ЦИЦАРОВ, 97 Денис КОРОБКИН 11 Иван АКИМОВ,17 Кирилл УГАРОВ, 21 Максим ЛЯХ, 22 Кирилл АБОЗИН, 33 Алексей АЛТУХОВ, 42 Евгений УСОВ, 52 Антон СЕЛЕЗНЁВ, 61 Андрей МАРТЫНОВ, 71 Евгений ТУНИК, 88 Василий МЯКИНИН, 91 Юрий ЖДАНОВ, 93 Владислав ТУНИК

Продолжительность

2:01:29

Скриншоты

Счёт/Итог

1-4

To download the content you need:
1. Download and install torrent client [for Windows] or for mobile system
2. Click on [Download]
Attention.
If the test YOU are NOT a ROBOT - does not work, then You are using an outdated browser.
Install the current browser and click on [Download]
Security: torrent client is allowed by Kaspersky.

[asmlocator.ru].t53581.torrent 
Torrent: Registered [ 2016-02-23 01:00 ] · E3614AC2C1E5BEB6699BFBFB1130430292541472

Download .torrent

Download

16 KB

Status: checked
Completed: 0 times
Size: 1.51 GB
terms.php
[Profile] [PM]
Display posts:    
Reply to topic

Current time is: 26-May 22:25

All times are UTC ± 0



You cannot post new topics in this forum
You cannot reply to topics in this forum
You cannot edit your posts in this forum
You cannot delete your posts in this forum
You cannot vote in polls in this forum
You cannot attach files in this forum
You can download files in this forum