КХЛ 15/16, РЧ: Слован - СКА [17.09.2015, Хоккей, IPTVRip/MPEG2/100 ТВ]

Reply to topic
DL-List and Torrent activity
Size:  4.98 GB   |    Registered:  3 years 5 months   |    Completed:  0 times

Seeder not seen: Never

 
   
 
 
Author Message

star21 ®

Gender: Female

Longevity: 3 years 8 months

Posts: 552033

Location: Екатеринбург

Post 22-Feb-2016 21:10

[Quote]

КХЛ 15/16, РЧ: Слован - СКА Вид спорта: Хоккей с шайбой
Дата/Год выпуска: 17.09.2015
Язык комментариев: Русский
Комментаторы: Шестаков и Богданов
Описание: Матч регулярного чемпионата
Автор рипа/записи: Собственный
Доп. информация: запись эфира с IPTV трансляции телеканала 100 ТВ, программой VLC 2.14
Реклама и перерывы не вырезаны, в перерывах обсуждение в студии, ведущий Соколов, гость и эксперт Кознев.
В концовке телепередачи указаны результаты игрового дня КХЛ!
Качество: IPTVRip
Формат видео: MPEG-TS (.ts)
Видео: MPEG-2, 720х576, 25 fps, ~4000 kbps
Аудио: Mp3, Stereo, 192kbps, 48.0 KHz
Кусочек для оценки

MediaInfo

Общее
Идентификатор : 1 (0x1)
Полное имя : E:\Sport\KHL\15-16\vlc-record-2015-09-17-20h30m23s-100 ТВ-.ts
Формат : MPEG-TS
Размер файла : 4,98 Гбайт
Продолжительность : 2 ч. 37 м.
Режим общего битрейта : Переменный
Общий поток : 4535 Кбит/сек
Видео
Идентификатор : 4194 (0x1062)
Идентификатор меню : 1 (0x1)
Формат : MPEG Video
Версия формата : Version 2
Профиль формата : Main@Main
Параметр BVOP формата : Да
Параметр матрицы формата : По умолчанию
Параметр GOP формата : M=3, N=15
Структура изображения : Frame
Идентификатор кодека : 2
Продолжительность : 2 ч. 37 м.
Вид битрейта : Переменный
Битрейт : 4117 Кбит/сек
Максимальный битрейт : 3883 Кбит/сек
Ширина : 720 пикселей
Высота : 576 пикселей
Соотношение сторон : 4:3
Частота кадров : 25,000 кадров/сек
Стандарт вещания : PAL
Цветовое пространство : YUV
Субдискретизация насыщенности : 4:2:0
Битовая глубина : 8 бит
Тип развёртки : Чересстрочная
Порядок развёртки : Верхнее поле первое
Метод сжатия : С потерями
Бит/(Пиксели*Кадры) : 0.397
Временной код первого кадра : 11:18:56:01
Оригинал временного кода : Group of pictures header
GOP, открыто/закрыто : Открыто
Размер потока : 4,52 Гбайт (91%)
Аудио
Идентификатор : 4195 (0x1063)
Идентификатор меню : 1 (0x1)
Формат : MPEG Audio
Версия формата : Version 1
Профиль формата : Layer 2
Идентификатор кодека : 3
Продолжительность : 2 ч. 37 м.
Вид битрейта : Постоянный
Битрейт : 192 Кбит/сек
Каналы : 2 канала
Частота : 48,0 КГц
Метод сжатия : С потерями
Задержка видео : -387 мс.
Размер потока : 216 Мбайт (4%)
Язык : Russian
Язык, дополнительно : Clean effects
Меню
Идентификатор : 4217 (0x1079)
Идентификатор меню : 1 (0x1)
Продолжительность : 2 ч. 37 м.
Список : 38 (0x26) () / 4194 (0x1062) (MPEG Video) / 4195 (0x1063) (MPEG Audio, Russian)
Язык : / / Russian

Составы

Продолжительность

02:37:08

Скриншоты

Счёт/Итог

Уверены?

1-2 (ОТ)

To download the content you need:
1. Download and install torrent client [for Windows] or for mobile system
2. Click on [Download]
Attention.
If the test YOU are NOT a ROBOT - does not work, then You are using an outdated browser.
Install the current browser and click on [Download]
Security: torrent client is allowed by Kaspersky.

[asmlocator.ru].t53441.torrent 
Torrent: Registered [ 2016-02-22 21:10 ] · 232DE373B1E5FA8E5C43318EB969C1F9510F9EC3

Download .torrent

Download

25 KB

Status: checked
Completed: 0 times
Size: 4.98 GB
terms.php
[Profile] [PM]
Display posts:    
Reply to topic

Current time is: 24-Jul 01:28

All times are UTC ± 0



You cannot post new topics in this forum
You cannot reply to topics in this forum
You cannot edit your posts in this forum
You cannot delete your posts in this forum
You cannot vote in polls in this forum
You cannot attach files in this forum
You can download files in this forum