КХЛ 15/16, РЧ: Динамо (Москва) - СКА [21.09.2015, Хоккей, IPTVRip/MPEG2/100 ТВ]

Reply to topic
DL-List and Torrent activity
Size:  4.7 GB   |    Registered:  3 years 3 months   |    Completed:  0 times

Seeder not seen: Never

 
   
 
 
Author Message

star21 ®

Gender: Female

Longevity: 3 years 6 months

Posts: 552204

Location: Екатеринбург

Post 22-Feb-2016 20:25

[Quote]

КХЛ 15/16, РЧ: Динамо (Москва) - СКА Вид спорта: Хоккей с шайбой
Участники: Динамо (Москва) и СКА (Санкт-Петербург)
Дата/Год выпуска: 21.09.2015
Язык комментариев: Русский
Комментатор: Шестаков
Описание: Матч регулярного чемпионата
Автор рипа/записи: Собственный
Доп. информация: запись эфира с IPTV трансляции телеканала 100 ТВ, программой VLC 2.14
Перерывы и реклама не вырезаны. В перерывах обсуждение и аналитика в студии. Ведущий Соколов, эксперт Кознев.
В конце передачи указаны результаты игрового дня!
Качество: IPTVRip
Формат видео: MPEG-TS (.ts)
Видео: MPEG-2, 720x576, 25 fps, VBR ~4000 kbps
Аудио: Mр3, Stereo, 48.0 KHz, 192 kbps
Кусочек для оценки

MediaInfo

Общее
Идентификатор : 1 (0x1)
Полное имя : E:\Sport\KHL\15-16\2015-09-21.Dinamo(Msk) - SKA.ts
Формат : MPEG-TS
Размер файла : 4,70 Гбайт
Продолжительность : 2 ч. 28 м.
Режим общего битрейта : Переменный
Общий поток : 4530 Кбит/сек
Видео
Идентификатор : 4194 (0x1062)
Идентификатор меню : 1 (0x1)
Формат : MPEG Video
Версия формата : Version 2
Профиль формата : Main@Main
Параметр BVOP формата : Да
Параметр матрицы формата : По умолчанию
Параметр GOP формата : M=3, N=15
Структура изображения : Frame
Идентификатор кодека : 2
Продолжительность : 2 ч. 28 м.
Вид битрейта : Переменный
Битрейт : 4112 Кбит/сек
Максимальный битрейт : 3883 Кбит/сек
Ширина : 720 пикселей
Высота : 576 пикселей
Соотношение сторон : 4:3
Частота кадров : 25,000 кадров/сек
Стандарт вещания : PAL
Цветовое пространство : YUV
Субдискретизация насыщенности : 4:2:0
Битовая глубина : 8 бит
Тип развёртки : Чересстрочная
Порядок развёртки : Верхнее поле первое
Метод сжатия : С потерями
Бит/(Пиксели*Кадры) : 0.397
Временной код первого кадра : 10:15:21:11
Оригинал временного кода : Group of pictures header
GOP, открыто/закрыто : Открыто
Размер потока : 4,27 Гбайт (91%)
Аудио
Идентификатор : 4195 (0x1063)
Идентификатор меню : 1 (0x1)
Формат : MPEG Audio
Версия формата : Version 1
Профиль формата : Layer 2
Идентификатор кодека : 3
Продолжительность : 2 ч. 28 м.
Вид битрейта : Постоянный
Битрейт : 192 Кбит/сек
Каналы : 2 канала
Частота : 48,0 КГц
Метод сжатия : С потерями
Задержка видео : -271 мс.
Размер потока : 204 Мбайт (4%)
Язык : Russian
Язык, дополнительно : Clean effects
Меню
Идентификатор : 4217 (0x1079)
Идентификатор меню : 1 (0x1)
Продолжительность : 2 ч. 28 м.
Список : 38 (0x26) () / 4194 (0x1062) (MPEG Video) / 4195 (0x1063) (MPEG Audio, Russian)
Язык : / / Russian

Составы

Продолжительность

02:28:30

Скриншоты

Счёт/Итог

Уверен?

3-2

To download the content you need:
1. Download and install torrent client [for Windows] or for mobile system
2. Click on [Download]
Attention.
If the test YOU are NOT a ROBOT - does not work, then You are using an outdated browser.
Install the current browser and click on [Download]
Security: torrent client is allowed by Kaspersky.

[asmlocator.ru].t53426.torrent 
Torrent: Registered [ 2016-02-22 20:25 ] · 856C86A26ACECFB9DDCAED8FC635223F641DF7C3

Download .torrent

Download

24 KB

Status: checked
Completed: 0 times
Size: 4.7 GB
terms.php
[Profile] [PM]
Display posts:    
Reply to topic

Current time is: 26-May 22:22

All times are UTC ± 0



You cannot post new topics in this forum
You cannot reply to topics in this forum
You cannot edit your posts in this forum
You cannot delete your posts in this forum
You cannot vote in polls in this forum
You cannot attach files in this forum
You can download files in this forum