КХЛ 15/16, РЧ: СКА - Йокерит [25.09.2015, Хоккей, IPTVRip/MPEG2/100 ТВ]

Reply to topic
DL-List and Torrent activity
Size:  4.99 GB   |    Registered:  3 years 3 months   |    Completed:  0 times

Seeder not seen: Never

 
   
 
 
Author Message

star21 ®

Gender: Female

Longevity: 3 years 6 months

Posts: 552206

Location: Екатеринбург

Post 22-Feb-2016 20:25

[Quote]

КХЛ 15/16, РЧ: СКА - Йокерит

Вид спорта: Хоккей с шайбой
Участники: СКА (Санкт-Петербург, Россия) и Йокерит (Хельсинки, Финляндия)
Дата/Год выпуска: 25.09.2015
Язык комментариев: Русский
Комментаторы: Шестаков и Богданов
Описание: Матч регулярного чемпионата
Автор рипа/записи: Собственный
Доп. информация: запись эфира с IPTV трансляции телеканала 100 ТВ, программой VLC 2.21
Перерывы и реклама не вырезаны. В перерывах обсуждение и аналитика в студии. Ведущий Хурамшин, эксперт Юдин.
В конце передачи указаны результаты игрового дня!
Качество: IPTVRip
Формат видео: MPEG-TS (.ts)
Видео: MPEG-2, 720x576, 25 fps, VBR ~4000 kbps
Аудио: Mр3, Stereo, 48.0 KHz, 192 kbps
Кусочек для оценки

MediaInfo

Общее
Идентификатор : 1 (0x1)
Полное имя : E:\Sport\KHL\15-16\25.09.15_SKA-Jokerit.ts
Формат : MPEG-TS
Размер файла : 4,99 Гбайт
Продолжительность : 2 ч. 37 м.
Режим общего битрейта : Переменный
Общий поток : 4535 Кбит/сек
Видео
Идентификатор : 4194 (0x1062)
Идентификатор меню : 1 (0x1)
Формат : MPEG Video
Версия формата : Version 2
Профиль формата : Main@Main
Параметр BVOP формата : Да
Параметр матрицы формата : По умолчанию
Параметр GOP формата : M=3, N=15
Структура изображения : Frame
Идентификатор кодека : 2
Продолжительность : 2 ч. 37 м.
Вид битрейта : Переменный
Битрейт : 4117 Кбит/сек
Максимальный битрейт : 3883 Кбит/сек
Ширина : 720 пикселей
Высота : 576 пикселей
Соотношение сторон : 4:3
Частота кадров : 25,000 кадров/сек
Стандарт вещания : PAL
Цветовое пространство : YUV
Субдискретизация насыщенности : 4:2:0
Битовая глубина : 8 бит
Тип развёртки : Чересстрочная
Порядок развёртки : Верхнее поле первое
Метод сжатия : С потерями
Бит/(Пиксели*Кадры) : 0.397
Временной код первого кадра : 10:19:10:22
Оригинал временного кода : Group of pictures header
GOP, открыто/закрыто : Открыто
Размер потока : 4,53 Гбайт (91%)
Аудио
Идентификатор : 4195 (0x1063)
Идентификатор меню : 1 (0x1)
Формат : MPEG Audio
Версия формата : Version 1
Профиль формата : Layer 2
Идентификатор кодека : 3
Продолжительность : 2 ч. 37 м.
Вид битрейта : Постоянный
Битрейт : 192 Кбит/сек
Каналы : 2 канала
Частота : 48,0 КГц
Метод сжатия : С потерями
Задержка видео : -287 мс.
Размер потока : 216 Мбайт (4%)
Язык : Russian
Язык, дополнительно : Clean effects
Меню
Идентификатор : 4217 (0x1079)
Идентификатор меню : 1 (0x1)
Продолжительность : 2 ч. 37 м.
Список : 38 (0x26) () / 4194 (0x1062) (MPEG Video) / 4195 (0x1063) (MPEG Audio, Russian)
Язык : / / Russian

Составы

Продолжительность

02:37:38

Скриншоты

Счёт/Итог

Уверен?

6-3

To download the content you need:
1. Download and install torrent client [for Windows] or for mobile system
2. Click on [Download]
Attention.
If the test YOU are NOT a ROBOT - does not work, then You are using an outdated browser.
Install the current browser and click on [Download]
Security: torrent client is allowed by Kaspersky.

[asmlocator.ru].t53405.torrent 
Torrent: Registered [ 2016-02-22 20:25 ] · 4AE40CAFECCADB5CB504F8EDC4C0C0BFAF8AD814

Download .torrent

Download

25 KB

Status: checked
Completed: 0 times
Size: 4.99 GB
terms.php
[Profile] [PM]
Display posts:    
Reply to topic

Current time is: 25-May 02:06

All times are UTC ± 0



You cannot post new topics in this forum
You cannot reply to topics in this forum
You cannot edit your posts in this forum
You cannot delete your posts in this forum
You cannot vote in polls in this forum
You cannot attach files in this forum
You can download files in this forum