КХЛ 15/16, РЧ: Трактор - СКА [03.10.2015, Хоккей, IPTVRip/MPEG2/100 ТВ]

Ответить на тему
Статистика раздачи
Размер:  5,01 GB   |    Зарегистрирован:  3 года 8 месяцев   |    Скачан:  0 раз

Полного источника не было: Никогда

 
   
 
 
Автор Сообщение

star21 ®

Пол: Женский

Стаж: 4 года

Сообщений: 551946

Откуда: Екатеринбург

Создавать темы 22-Фев-2016 18:50

[Цитировать]

КХЛ 15/16, РЧ: Трактор - СКА

Вид спорта: Хоккей с шайбой
Участники: Трактор (Челябинск) - СКА (Санкт-Петербург)
Дата/Год выпуска: 03.10.2015
Язык комментариев: Русский
Комментатор: Шестаков
Описание: Матч регулярного чемпионата
Автор рипа/записи: Собственный
Доп. информация: запись эфира с IPTV трансляции телеканала 100 ТВ, программой VLC 2.1.4
Перерывы и реклама не вырезаны. В перерывах обсуждение и аналитика в студии. Ведущий Тихомиров, эксперт Горбушин.
Качество: IPTVRip
Формат видео: MPEG-TS (.ts)
Видео: MPEG-2, 720x576, 25 fps, VBR ~4000 kbps
Аудио: Mр3, Stereo, 48.0 KHz, 192 kbps
Кусочек для оценки

MediaInfo

Общее
Идентификатор : 1 (0x1)
Полное имя : F:\Sport\KHL\15-16\03.10.15.Traktor-SKA.ts
Формат : MPEG-TS
Размер файла : 5,01 Гбайт
Продолжительность : 2 ч. 38 м.
Режим общего битрейта : Переменный
Общий поток : 4536 Кбит/сек
Видео
Идентификатор : 4194 (0x1062)
Идентификатор меню : 1 (0x1)
Формат : MPEG Video
Версия формата : Version 2
Профиль формата : Main@Main
Параметр BVOP формата : Да
Параметр матрицы формата : По умолчанию
Параметр GOP формата : M=3, N=15
Структура изображения : Frame
Идентификатор кодека : 2
Продолжительность : 2 ч. 38 м.
Вид битрейта : Переменный
Битрейт : 4118 Кбит/сек
Максимальный битрейт : 3883 Кбит/сек
Ширина : 720 пикселей
Высота : 576 пикселей
Соотношение сторон : 4:3
Частота кадров : 25,000 кадров/сек
Стандарт вещания : PAL
Цветовое пространство : YUV
Субдискретизация насыщенности : 4:2:0
Битовая глубина : 8 бит
Тип развёртки : Чересстрочная
Порядок развёртки : Верхнее поле первое
Метод сжатия : С потерями
Бит/(Пиксели*Кадры) : 0.397
Временной код первого кадра : 05:36:27:04
Оригинал временного кода : Group of pictures header
GOP, открыто/закрыто : Открыто
Размер потока : 4,55 Гбайт (91%)
Аудио
Идентификатор : 4195 (0x1063)
Идентификатор меню : 1 (0x1)
Формат : MPEG Audio
Версия формата : Version 1
Профиль формата : Layer 2
Идентификатор кодека : 3
Продолжительность : 2 ч. 38 м.
Вид битрейта : Постоянный
Битрейт : 192 Кбит/сек
Каналы : 2 канала
Частота : 48,0 КГц
Метод сжатия : С потерями
Задержка видео : -123 мс.
Размер потока : 217 Мбайт (4%)
Язык : Russian
Язык, дополнительно : Clean effects
Меню
Идентификатор : 4217 (0x1079)
Идентификатор меню : 1 (0x1)
Продолжительность : 2 ч. 38 м.
Список : 38 (0x26) () / 4194 (0x1062) (MPEG Video) / 4195 (0x1063) (MPEG Audio, Russian)
Язык : / / Russian

Составы

Продолжительность

02:38:02

Скриншоты

Счёт/Итог

Уверен?

2:1 ОТ

Чтобы скачать этот контент, Вам необходимо:
1. Скачать и установить торрент-клиент [клик для Windows], (для мобильного найдите на Play Маркет).
2. Кликнуть по [Скачать]


Внимание.
Если проверка ВЫ НЕ РОБОТ - не работает, значит Вы используете устаревший браузер.
Установите актуальный браузер и повторно кликните по [Скачать]
Безопасность: торрент-клиент разрешён АВ Касперского.

[asmlocator.ru].t53363.torrent 
Торрент: Зарегистрирован [ 2016-02-22 18:50 ] · DEE927BA178A731772BA38D869EFE2F8B485BB82

Скачать .torrent

Скачать

25 KB

Статус: проверено
Скачан: 0 раз
Размер: 5,01 GB
terms.php
[Профиль] [ЛС]
Показать сообщения:    
Ответить на тему

Текущее время: 14-Ноя 04:54

Часовой пояс: UTC ± 0



Вы не можете начинать темы
Вы не можете отвечать на сообщения
Вы не можете редактировать свои сообщения
Вы не можете удалять свои сообщения
Вы не можете голосовать в опросах
Вы не можете прикреплять файлы к сообщениям
Вы можете скачивать файлы
Верим фактам, а не вранью Путина! Факт, что Правительство ведёт Россию к истреблению.
Так как численность населения падает, даже не смотря на приток эмигрантов!
Русская нация вымирает и вырождается, смешиваясь с эмигрантами!
Факт, что военных и граждан предприятий заставляют голосовать за партию Единая Россия и Путина
ПОД СТРАХОМ УВОЛЬНЕНИЯ!
Нам не нужно Правительство, блокирующее личную жизнь, интернет, нарушающее сохранность данных.
Все эти действия финансируются за счёт народа!