КХЛ 15/16, РЧ: CКА - Локомотив [10.10.2015, Хоккей, IPTVRip/MPEG2/Life78]

Reply to topic
DL-List and Torrent activity
Size:  4.3 GB   |    Registered:  3 years 3 months   |    Completed:  0 times

Seeder not seen: Never

 
   
 
 
Author Message

star21 ®

Gender: Female

Longevity: 3 years 6 months

Posts: 552207

Location: Екатеринбург

Post 22-Feb-2016 18:05

[Quote]

КХЛ 15/16, РЧ: CКА - Локомотив

Вид спорта: Хоккей с шайбой
Участники: СКА (Санкт-Петербург) и Локомотив (Ярославль)
Дата/Год выпуска: 10.10.2015
Язык комментариев: Русский
Комментаторы: Шестаков и Богданов
Описание: Матч регулярного чемпионата
Автор рипа/записи: Собственный
Доп. информация: запись эфира с IPTV трансляции телеканала Life78, программой VLC 2.1.4
Перерывы и реклама не вырезаны. В перерывах новости и обсуждение в студии. Ведущий Хурамшин, эксперт Юдин.
Качество: HDTVRip
Формат видео: MPEG-TS (.ts)
Видео: MPEG-2, 720x576, 25 fps, VBR ~4000 kbps
Аудио: Mр3, Stereo, 48.0 KHz, 192 kbps

MediaInfo

Общее
Идентификатор : 1 (0x1)
Полное имя : F:\Sport\KHL\15-16\10.10.15.SKA-Lokomotiv.ts
Формат : MPEG-TS
Размер файла : 4,30 Гбайт
Продолжительность : 2 ч. 15 м.
Режим общего битрейта : Переменный
Общий поток : 4539 Кбит/сек
Видео
Идентификатор : 4194 (0x1062)
Идентификатор меню : 1 (0x1)
Формат : MPEG Video
Версия формата : Version 2
Профиль формата : Main@Main
Параметр BVOP формата : Да
Параметр матрицы формата : По умолчанию
Параметр GOP формата : M=3, N=15
Структура изображения : Frame
Идентификатор кодека : 2
Продолжительность : 2 ч. 15 м.
Вид битрейта : Переменный
Битрейт : 4121 Кбит/сек
Максимальный битрейт : 3883 Кбит/сек
Ширина : 720 пикселей
Высота : 576 пикселей
Соотношение сторон : 4:3
Частота кадров : 25,000 кадров/сек
Стандарт вещания : PAL
Цветовое пространство : YUV
Субдискретизация насыщенности : 4:2:0
Битовая глубина : 8 бит
Тип развёртки : Чересстрочная
Порядок развёртки : Верхнее поле первое
Метод сжатия : С потерями
Бит/(Пиксели*Кадры) : 0.397
Временной код первого кадра : 08:27:00:23
Оригинал временного кода : Group of pictures header
GOP, открыто/закрыто : Открыто
Размер потока : 3,90 Гбайт (91%)
Аудио
Идентификатор : 4195 (0x1063)
Идентификатор меню : 1 (0x1)
Формат : MPEG Audio
Версия формата : Version 1
Профиль формата : Layer 2
Идентификатор кодека : 3
Продолжительность : 2 ч. 15 м.
Вид битрейта : Постоянный
Битрейт : 192 Кбит/сек
Каналы : 2 канала
Частота : 48,0 КГц
Метод сжатия : С потерями
Задержка видео : -322 мс.
Размер потока : 186 Мбайт (4%)
Язык : Russian
Язык, дополнительно : Clean effects
Меню
Идентификатор : 4217 (0x1079)
Идентификатор меню : 1 (0x1)
Продолжительность : 2 ч. 15 м.
Список : 38 (0x26) () / 4194 (0x1062) (MPEG Video) / 4195 (0x1063) (MPEG Audio, Russian)
Язык : / / Russian

Составы

Продолжительность

02:15:29

Скриншоты

Счёт/Итог

Уверен?

0 - 3

To download the content you need:
1. Download and install torrent client [for Windows] or for mobile system
2. Click on [Download]
Attention.
If the test YOU are NOT a ROBOT - does not work, then You are using an outdated browser.
Install the current browser and click on [Download]
Security: torrent client is allowed by Kaspersky.

[asmlocator.ru].t53321.torrent 
Torrent: Registered [ 2016-02-22 18:05 ] · E4366A64E0EBD7F50CB43CFC01418B9A47D0D568

Download .torrent

Download

22 KB

Status: checked
Completed: 0 times
Size: 4.3 GB
terms.php
[Profile] [PM]
Display posts:    
Reply to topic

Current time is: 24-May 18:22

All times are UTC ± 0



You cannot post new topics in this forum
You cannot reply to topics in this forum
You cannot edit your posts in this forum
You cannot delete your posts in this forum
You cannot vote in polls in this forum
You cannot attach files in this forum
You can download files in this forum