[TR24][OF] James Taylor - In The Pocket - 1976/2013 (Folk-Rock) :: Официальный сайт PrivalSystems и Asmlocator

[TR24][OF] James Taylor - In The Pocket - 1976/2013 (Folk-Rock)

Ответить на тему
Статистика раздачи
Размер:  1,59 GB   |    Зарегистрирован:  3 месяца 3 дня   |    Скачан:  0 раз

Полного источника не было: Никогда

 
   
 
 
Автор Сообщение

star21 ®

Пол: Женский

Стаж: 2 года 9 месяцев

Сообщений: 532039

Откуда: Екатеринбург

Создавать темы 16-Май-2018 15:20

[Цитировать]

James Taylor - In The Pocket Формат записи/Источник записи: [TR24][OF]
Наличие водяных знаков: Нет
Год издания/переиздания диска: 1976/2013
Жанр: Folk-Rock
Издатель (лейбл): Rhino/Warner Bros.
Продолжительность: 44:58
Наличие сканов в содержимом раздачи: Только обложка альбомаТреклист:
01. Shower The People (4:34)
02. A Junkie's Lament (3:31)
03. Money Machine (4:37)
04. Slow Burning Love (3:44)
05. Everybody Has The Blues (2:03)
06. Daddy's All Gone (3:38)
07. Woman's Gotta Have It (4:21)
08. Captain Jim's Drunken Dream (4:04)
09. Don't Be Sad 'Cause Your Sun Is Down (3:30)
10. Nothing Like A Hundred Miles (3:44)
11. Family Man (3:39)
12. Golden Moments (3:33)
 

Об альбоме

In The Pocket is one of James Taylor’s most acclaimed recordings. His final release for Warner Bros. Records features appearances by Art Garfunkel, Carly Simon, Stevie Wonder, David Crosby, Linda Ronstadt, Bonnie Raitt, Leland Sklar, Graham Nash, Milt Holland, David Grisman, among others. Reaching the Billboard Top Twenty, the album includes the chart-topping hit, “Shower The People”. This Gold-certified masterpiece is essential for any music lover’s library.James Taylor's seventh album and last new recording for Warner Bros. is notable for producing his biggest self-written hit in four years, "Shower the People" (number 22 pop, number one easy listening). Bobby Womack's "Woman's Gotta Have It" was the album's only cover, and elsewhere Taylor took on a surprisingly rough set of issues in his typically gentle style, including "A Junkie's Lament" and "Money Machine." There were also reflections on being a "Family Man" even if, due to his peripatetic touring life, "Daddy's All Gone." Guest stars included Art Garfunkel, who harmonized on "Captain Jim's Drunken Dream," and Stevie Wonder, who co-wrote and played harmonica on "Don't Be Sad 'Cause Your Sun Is Down." On the whole, a respectable effort for an artist who was evolving into more of a craftsman than a virtuoso.
Контейнер: FLAC (*.flac)
Тип рипа: tracksРазрядность: 24/192
Формат: PCM
Количество каналов: 2.0

Лог проверки качества

foobar2000 1.3.9 / Dynamic Range Meter 1.1.1log date: 2018-05-16 16:17:25--------------------------------------------------------------------------------Analyzed: James Taylor / In The Pocket--------------------------------------------------------------------------------DR         Peak         RMS     Duration Track--------------------------------------------------------------------------------DR13      -1.79 dB   -17.42 dB      4:34 01-Shower The PeopleDR13      -0.29 dB   -17.73 dB      3:31 02-A Junkie's LamentDR14      -0.88 dB   -18.02 dB      4:37 03-Money MachineDR13      -0.42 dB   -16.90 dB      3:44 04-Slow Burning LoveDR12      -1.06 dB   -15.09 dB      2:03 05-Everybody Has The BluesDR16      -0.10 dB   -19.55 dB      3:38 06-Daddy's All GoneDR11      -2.60 dB   -16.53 dB      4:21 07-Woman's Gotta Have ItDR12      -2.53 dB   -17.49 dB      4:04 08-Captain Jim's Drunken DreamDR13      -2.94 dB   -18.63 dB      3:30 09-Don't Be Sad 'Cause Your Sun Is DownDR13      -2.05 dB   -18.16 dB      3:44 10-Nothing Like A Hundred MilesDR14      -1.19 dB   -17.89 dB      3:39 11-Family ManDR14      -4.97 dB   -22.31 dB      3:33 12-Golden Moments--------------------------------------------------------------------------------Number of tracks:  12Official DR value: DR13Samplerate:        192000 HzChannels:          2Bits per sample:   24Bitrate:           4816 kbpsCodec:             FLAC================================================================================
Источник: hdtracks.com

Для скачки контента: [Установить программу-клиент] и кликнуть по - СкачатьБезопасность: клиент проверен АВ Касперского

[asmlocator.ru].t532712.torrent 
Торрент: Зарегистрирован [ 2018-05-16 15:20 ] · 89014148A8951388C4855DBC2D9C4D164A884F9A

Скачать .torrent

Скачать

17 KB

Статус: проверено
Скачан: 0 раз
Размер: 1,59 GB
terms.php
[Профиль] [ЛС]
Показать сообщения:    
Ответить на тему

Текущее время: 20-Авг 12:30

Часовой пояс: UTC ± 0



Вы не можете начинать темы
Вы не можете отвечать на сообщения
Вы не можете редактировать свои сообщения
Вы не можете удалять свои сообщения
Вы не можете голосовать в опросах
Вы не можете прикреплять файлы к сообщениям
Вы можете скачивать файлы