(Classic Rock, AOR) [CD] The Babys - The Best of The Babys (Ten Best Series) - 1997, FLAC (image+.cue), lossless

Ответить на тему
Статистика раздачи
Размер:  239 MB   |    Зарегистрирован:  11 дней   |    Скачан:  0 раз

Полного источника не было: Никогда

 
   
 
 
Автор Сообщение

star21 ®

Пол: Не указан

Стаж: 2 года 6 месяцев

Сообщений: 519076

Создавать темы 16-Май-2018 15:20

[Цитировать]

THE BABYS - The Best of The Babys (Ten Best Series) Жанр: Classic Rock, AOR
Носитель: CD
Страна-производитель диска (релиза): US
Год издания: 1997
Издатель (лейбл): EMI - Capitol Music: Special Markets
Номер по каталогу: 72438-19064-2-2
Страна исполнителя (группы): UK
Аудиокодек: FLAC (*.flac)
Тип рипа: image+.cue
Битрейт аудио: lossless
Продолжительность: 00:37:35
Источник (релизер): Собственный CD
Наличие сканов в содержимом раздачи: да
Треклист:01 - Rock And Roll Is Alive And Well
02 - Turn And Walk Away
03 - In Your Eyes
04 - Midnight Rendevous
05 - Back On My Feet Again
06 - Every Time I Think Of You
07 - Love Won't Wait
08 - You (Got It)
09 - I Believe In Love
10 - Silver Dreams

Лог создания рипа

Exact Audio Copy V1.3 from 2. September 2016Отчёт EAC об извлечении, выполненном 16. мая 2018, 9:08The Babys / The Best of The Babys (Ten Best Series)Дисковод: MATSHITADVD-RAM UJ8FBS   Adapter: 1  ID: 0Режим чтения                 : ДостоверностьИспользование точного потока : ДаОтключение кэша аудио        : ДаИспользование указателей C2  : НетКоррекция смещения при чтении                     : 6Способность читать области Lead-in и Lead-out     : НетЗаполнение пропущенных сэмплов тишиной            : ДаУдаление блоков с тишиной в начале и конце        : НетПри вычислениях CRC использовались нулевые сэмплы : ДаИнтерфейс                                         : Встроенный Win32-интерфейс для Win NT/2000Выходной формат          : Пользовательский кодировщикВыбранный битрейт        : 1024 kBit/sКачество                 : ВысокийДобавление ID3-тега      : НетУтилита сжатия           : C:\Program Files\Exact Audio Copy\FLAC\FLAC.EXEДополнительные параметры : -V -8 -T "Date=%year%" -T "Genre=%genre%" %source%TOC извлечённого CD     Трек |   Старт  | Длительность | Начальный сектор | Конечный сектор    ---------------------------------------------------------------------       1  |  0:00.00 |    4:08.65   |           0      |      18664       2  |  4:08.65 |    3:13.57   |       18665      |      33196       3  |  7:22.47 |    4:06.68   |       33197      |      51714       4  | 11:29.40 |    3:35.07   |       51715      |      67846       5  | 15:04.47 |    3:20.23   |       67847      |      82869       6  | 18:24.70 |    4:02.42   |       82870      |     101061       7  | 22:27.37 |    3:04.70   |      101062      |     114931       8  | 25:32.32 |    4:37.38   |      114932      |     135744       9  | 30:09.70 |    4:20.60   |      135745      |     155304      10  | 34:30.55 |    3:04.12   |      155305      |     169116Характеристики диапазона извлечения и сообщения об ошибкахВыбранный диапазон     Имя файла C:\Users\User\Music\The Babys\The Babys - The Best of The Babys (Ten Best Series).wav     Пиковый уровень 97.2 %     Скорость извлечения 4.2 X     Качество диапазона 100.0 %     CRC теста 104FF7A9     CRC копии 104FF7A9     Копирование... OKОшибок не произошлоAccurateRip: сводкаТрек  1  : извлечено точно (доверие 2)  [2A28DAAF]  (AR v2)Трек  2  : извлечено точно (доверие 2)  [CDFBFD81]  (AR v2)Трек  3  : извлечено точно (доверие 2)  [D9F49A8C]  (AR v2)Трек  4  : извлечено точно (доверие 2)  [9155652F]  (AR v2)Трек  5  : извлечено точно (доверие 2)  [BF490811]  (AR v2)Трек  6  : извлечено точно (доверие 2)  [A5E3E579]  (AR v2)Трек  7  : извлечено точно (доверие 2)  [6E7EB377]  (AR v2)Трек  8  : извлечено точно (доверие 2)  [10CC7321]  (AR v2)Трек  9  : извлечено точно (доверие 2)  [6372D603]  (AR v2)Трек 10  : извлечено точно (доверие 2)  [C4ABD2BD]  (AR v2)Все треки извлечены точноКонец отчёта==== Контрольная сумма отчёта 51E19D8E034C0A2971F047DD80A958216DCF2C240A7AEBA4C6916D2E1FEFFC56 ====

Содержание индексной карты (.CUE)

REM GENRE RockREM DATE 1997REM DISCID 7008CE0AREM COMMENT "ExactAudioCopy v1.3"PERFORMER "The Babys"TITLE "The Best of The Babys (Ten Best Series)"REM COMPOSER ""FILE "The Babys - The Best of The Babys (Ten Best Series).flac" WAVE  TRACK 01 AUDIO    TITLE "Rock and Roll Is Alive and Well"    PERFORMER "The Babys"    REM COMPOSER ""    INDEX 01 00:00:00  TRACK 02 AUDIO    TITLE "Turn and Walk Away"    PERFORMER "The Babys"    REM COMPOSER ""    INDEX 00 04:06:67    INDEX 01 04:08:65  TRACK 03 AUDIO    TITLE "In Your Eyes"    PERFORMER "The Babys"    REM COMPOSER ""    INDEX 00 07:20:62    INDEX 01 07:22:47  TRACK 04 AUDIO    TITLE "Midnight Rendezvous"    PERFORMER "The Babys"    REM COMPOSER ""    INDEX 00 11:27:35    INDEX 01 11:29:40  TRACK 05 AUDIO    TITLE "Back on My Feet Again"    PERFORMER "The Babys"    REM COMPOSER ""    INDEX 00 15:02:17    INDEX 01 15:04:47  TRACK 06 AUDIO    TITLE "Every Time I Think of You"    PERFORMER "The Babys"    REM COMPOSER ""    INDEX 00 18:21:62    INDEX 01 18:24:70  TRACK 07 AUDIO    TITLE "Love Won't Wait"    PERFORMER "The Babys"    REM COMPOSER ""    INDEX 00 22:25:50    INDEX 01 22:27:37  TRACK 08 AUDIO    TITLE "You (Got It)"    PERFORMER "The Babys"    REM COMPOSER ""    INDEX 00 25:30:65    INDEX 01 25:32:32  TRACK 09 AUDIO    TITLE "I Believe in Love"    PERFORMER "The Babys"    REM COMPOSER ""    INDEX 00 30:08:42    INDEX 01 30:09:70  TRACK 10 AUDIO    TITLE "Silver Dreams"    PERFORMER "The Babys"    REM COMPOSER ""    INDEX 00 34:28:60    INDEX 01 34:30:55

Об исполнителе (группе)

БИОГРАФИЯ BABYSПо одной из нескольких версий история "The Babys" началась в 1975 году, когда в каком-то из пабов лондонского Ист-Энда повстречались басист-вокалист Джон Уэйт и гитарист-клавишник Майк Корби. После ночи, проведенной в совместном распитии алкоголесодержащих напитков, парни пришли к выводу, что им жизненно необходимо создать команду, с помощью которой они бы могли выразить свои схожие музыкальные вкусы. Решение претворили в жизнь с помощью барабанщика Тони Брока и гитариста Уолтера Стокера, а свежеиспеченный проект получил совершенно нерок-н-ролльное имя "The Babys" (такой выбор обосновывался стремлением быстрого заполучения мажорного контракта).
Поскольку в Британии наступала эпоха панка, музыканты обратили свой взгляд за океан и стали искать прибежище там. Для скорейшего достижения цели группа сняла видеоролик с тремя своими песнями и благодаря такому хитроумному ходу пристроилась под крышу "Chrysalis Records".В 1976 году в Торонто вместе с продюсерами Брайаном Кристианом и Бобом Эзрином был записан дебютный альбом. Работа не вызвала большого резонанса, но некоторую долю внимания получил сингл "If You ve Got The Time". В начале 1977-го группа отправилась на гастроли по Туманному Альбиону разогревая "The Damned" и "Deaf School", однако публика требовала панк-рока, и музыка "Babys" оказалась там невостребованной. Куда более теплый прием ожидал команду в Штатах, куда она вернулась из Англии несолоно хлебавши. Пластинка "Broken Heart", спродюсированная Роном Невисоном, стала для группы серьезным прорывом. Львиную долю успеха обеспечила песня "Isn t It Time", являвшаяся настоящим интернациональным хитом.
Композиция побывала в чартах многих стран, но самым приятным для "The Babys" было то, что ее признали в Британии (коллектив даже появился с ней в передаче "Top Of The Pops"). В поддержку "Broken Heart" группа много гастролировала в Америке, прокатилась по Европе, а также совершила вояж в Японию.Первые серьезные проблемы возникли во время записи третьей полнометражки, создаваемой вновь под руководством Невисона. Группа тогда стала продвигаться в сторону AOR, но Корби, желавший играть прямолинейный рок-н-ролл, не согласился со сменой курса и хлопнул дверью. Оставшуюся студийную работу Джон, Тони и Уолтер доделали втроем, однако для последующих гастролей состав был доукомплектован клавишником Джонатаном Кэйном и бас-гитаристом Рики Филлипсом. "Head First" принес команде второй значительный хит - "Every Time I Think Of You". Продолжая держать курс на мэйнстрим-рок, коллектив сменил продюсера на Кита Олсена, с которым выпустил пару альбомов, "Union Jacks" и "On The Edge". Наиболее известными вещами с этих релизов стали песни "Back On My Feet Again", "Midnight Rendezvous" и "Turn And Walk Away".
Обе пластинки вышли в 1980 году, и в том же году команда провела успешное турне в компании с "Journey". Впрочем, больших коммерческих высот "The Babys" так и не удалось достигнуть, и дело стало двигаться к завершению. Когда на одном из концертов Уэйт повредил себе коленку (его стащил со сцены какой-то сильно взбудораженный тип) и остаток гастролей пришлось отменить, это послужило официальным поводом для роспуска группы.

Об альбоме (сборнике)

https://www.discogs.com/Babys-The-Best-Of-The-Babys/master/1024771

Состав

The Babys are:Jonathan Cain: guitar, keyboards;
Ricky Phillips: bass;
Wally Stocker: guitar:
Tony Brock: drums;
John Waite: lead vocal

Для скачки контента: [Установить программу-клиент] и кликнуть по - Скачать

[asmlocator.ru].t532707.torrent 
Торрент: Зарегистрирован [ 2018-05-16 15:20 ] · 9501C9E995FECB96F5A5A4769A81CF13D5D42F9E

Скачать .torrent

Скачать

20 KB

Статус: проверено
Скачан: 0 раз
Размер: 239 MB
terms.php
[Профиль] [ЛС]
Показать сообщения:    
Ответить на тему

Текущее время: 28-Май 09:25

Часовой пояс: UTC ± 0



Вы не можете начинать темы
Вы не можете отвечать на сообщения
Вы не можете редактировать свои сообщения
Вы не можете удалять свои сообщения
Вы не можете голосовать в опросах
Вы не можете прикреплять файлы к сообщениям
Вы можете скачивать файлы