(Pop) [CD] VA - 80 минут в машине - 2007, APE (tracks+.cue) lossless [Various Artists]

Ответить на тему
Статистика раздачи
Размер:  547 MB   |    Зарегистрирован:  11 дней   |    Скачан:  0 раз

Полного источника не было: Никогда

 
   
 
 
Автор Сообщение

star21 ®

Пол: Не указан

Стаж: 2 года 6 месяцев

Сообщений: 519076

Создавать темы 16-Май-2018 15:20

[Цитировать]

VA - 80 минут в машине Жанр: Pop
Носитель: CD
Страна-производитель диска (релиза): РФ
Год издания: 2007
Аудиокодек: Monkey's Audio Compressor (*.ape)
Тип рипа: tracks+.cue
Битрейт аудио: lossless
Продолжительность: 01:19:52
Источник (релизер): Личный CD rip
Наличие сканов в содержимом раздачи: добавленыТреклист:01 - Vadya Bo - У колледжа ждал
02 - Artush - Bangladesh
03 - Каникулы - Здрасте, Настя !
04 - Калинки & Малинки - Цыгель-цыгель - ай-лю-лю !
05 - Аркадий Грек - Маленькая девочка
06 - Vadya Bo - Ave Maria
07 - Artush - Я люблю тебя
08 - Мама Ева - Улетают птицы
09 - Горячие Головы - Самая лучшая
10 - Аркадий Грек - Зелёные глаза
11 - Vadya Bo - В Ялту ту-ту (remix)
12 - Калинки & Малинки - Калинка Малинка
13 - Каникулы - Бритни с пирса
14 - Владимир Мун - Эммануэль
15 - Аркадий Грек - Слёзы
16 - Vadya Bo - Мандаты (House Worx in the mix)
17 - Артём орлов - Буква RRRRR...
18 - Artush - Дари - подари
19 - Николай Бурлак & Анне Вески - Половинка
20 - Дикий мёд - Я не люблю тебя
21 - Vadya Bo - Maria wanna be so high
22 - Татьяна Чубарова - Ой, мороз, мороз !

LOG

Exact Audio Copy V1.3 from 2. September 2016Отчёт EAC об извлечении, выполненном 16. мая 2018, 14:11Various / 80 минут в машинеДисковод: HL-DT-STDVDRAM GSA-T20N   Adapter: 1  ID: 0Режим чтения                 : ДостоверностьИспользование точного потока : ДаОтключение кэша аудио        : ДаИспользование указателей C2  : НетКоррекция смещения при чтении                     : 667Способность читать области Lead-in и Lead-out     : НетЗаполнение пропущенных сэмплов тишиной            : ДаУдаление блоков с тишиной в начале и конце        : НетПри вычислениях CRC использовались нулевые сэмплы : ДаИнтерфейс                                         : Встроенный Win32-интерфейс для Win NT/2000Обработка зазоров                                 : Добавлено к предыдущему трекуВыходной формат          : Пользовательский кодировщикВыбранный битрейт        : 768 kBit/sКачество                 : ВысокийДобавление ID3-тега      : НетУтилита сжатия           : { M } onkey's   { A } udio   { C } ompressor  (версия 4.33 - декабрь 2017).exeДополнительные параметры : %dest% -t "DiscID=%cddbid%" -t "Comment=       ~ ^ ` @    трудился   РУ€_ик    @ ` ^ ~       " -t "Track=%tracknr2%/%numtracks%" -t "Artist=%artist%" -t "Album Artist=%albumartist%" -t "Title=%title%" -t "Album=%albumtitle%" -t "Year=%year%" -t "Genre=%genre%" MAC.exe %source% %dest% -c4000 -VTOC извлечённого CD     Трек |   Старт  | Длительность | Начальный сектор | Конечный сектор    ---------------------------------------------------------------------       1  |  0:00.00 |    3:24.54   |           0      |      15353       2  |  3:24.54 |    3:11.08   |       15354      |      29686       3  |  6:35.62 |    3:21.16   |       29687      |      44777       4  |  9:57.03 |    3:09.71   |       44778      |      59023       5  | 13:06.74 |    3:48.72   |       59024      |      76195       6  | 16:55.71 |    3:25.47   |       76196      |      91617       7  | 20:21.43 |    4:16.22   |       91618      |     110839       8  | 24:37.65 |    3:37.36   |      110840      |     127150       9  | 28:15.26 |    3:43.06   |      127151      |     143881      10  | 31:58.32 |    4:27.61   |      143882      |     163967      11  | 36:26.18 |    3:04.64   |      163968      |     177831      12  | 39:31.07 |    2:42.33   |      177832      |     190014      13  | 42:13.40 |    3:18.58   |      190015      |     204922      14  | 45:32.23 |    4:04.47   |      204923      |     223269      15  | 49:36.70 |    3:02.25   |      223270      |     236944      16  | 52:39.20 |    4:34.21   |      236945      |     257515      17  | 57:13.41 |    3:31.51   |      257516      |     273391      18  | 60:45.17 |    3:26.29   |      273392      |     288870      19  | 64:11.46 |    3:32.02   |      288871      |     304772      20  | 67:43.48 |    4:36.10   |      304773      |     325482      21  | 72:19.58 |    4:10.30   |      325483      |     344262      22  | 76:30.13 |    3:23.24   |      344263      |     359511Трек  1     Имя файла C:\РУ€_ик\01 - Vadya Bo - У колледжа ждал.wav     Длина предзазора  0:00:02.00     Пиковый уровень 100.0 %     Скорость извлечения 2.3 X     Качество трека 100.0 %     CRC теста 7FEA6128     CRC копии 7FEA6128     Точное извлечение (достоверность 1)  [0529C0B3]  (AR v2)     Копирование... OKТрек  2     Имя файла C:\РУ€_ик\02 - Artush - Bangladesh.wav     Пиковый уровень 100.0 %     Скорость извлечения 2.4 X     Качество трека 100.0 %     CRC теста 9353ACFC     CRC копии 9353ACFC     Точное извлечение (достоверность 1)  [51843F73]  (AR v2)     Копирование... OKТрек  3     Имя файла C:\РУ€_ик\03 - Каникулы - Здрасте, Настя !.wav     Пиковый уровень 100.0 %     Скорость извлечения 2.6 X     Качество трека 100.0 %     CRC теста 070007C8     CRC копии 070007C8     Точное извлечение (достоверность 1)  [0C0957F2]  (AR v2)     Копирование... OKТрек  4     Имя файла C:\РУ€_ик\04 - Калинки & Малинки - Цыгель-цыгель - ай-лю-лю !.wav     Пиковый уровень 100.0 %     Скорость извлечения 2.8 X     Качество трека 100.0 %     CRC теста 413080A6     CRC копии 413080A6     Точное извлечение (достоверность 1)  [72E4DFDE]  (AR v2)     Копирование... OKТрек  5     Имя файла C:\РУ€_ик\05 - Аркадий Грек - Маленькая девочка.wav     Пиковый уровень 100.0 %     Скорость извлечения 3.0 X     Качество трека 100.0 %     CRC теста 6109F6DD     CRC копии 6109F6DD     Точное извлечение (достоверность 1)  [62F1FB61]  (AR v2)     Копирование... OKТрек  6     Имя файла C:\РУ€_ик\06 - Vadya Bo - Ave Maria.wav     Пиковый уровень 100.0 %     Скорость извлечения 3.1 X     Качество трека 100.0 %     CRC теста B5E55E18     CRC копии B5E55E18     Точное извлечение (достоверность 1)  [A6569F44]  (AR v2)     Копирование... OKТрек  7     Имя файла C:\РУ€_ик\07 - Artush - Я люблю тебя.wav     Пиковый уровень 100.0 %     Скорость извлечения 3.0 X     Качество трека 99.9 %     CRC теста 76BDFDB2     CRC копии 76BDFDB2     Точное извлечение (достоверность 1)  [1A5C84B4]  (AR v2)     Копирование... OKТрек  8     Имя файла C:\РУ€_ик\08 - Мама Ева - Улетают птицы.wav     Пиковый уровень 100.0 %     Скорость извлечения 3.0 X     Качество трека 99.9 %     CRC теста 6C991F14     CRC копии 6C991F14     Точное извлечение (достоверность 1)  [5F7A4ADE]  (AR v2)     Копирование... OKТрек  9     Имя файла C:\РУ€_ик\09 - Горячие Головы - Самая лучшая.wav     Пиковый уровень 100.0 %     Скорость извлечения 3.1 X     Качество трека 99.9 %     CRC теста 5B45CC2A     CRC копии 5B45CC2A     Точное извлечение (достоверность 1)  [00F47881]  (AR v2)     Копирование... OKТрек 10     Имя файла C:\РУ€_ик\10 - Аркадий Грек - Зелёные глаза.wav     Пиковый уровень 100.0 %     Скорость извлечения 3.8 X     Качество трека 100.0 %     CRC теста CC266308     CRC копии CC266308     Точное извлечение (достоверность 1)  [AF1B16B1]  (AR v2)     Копирование... OKТрек 11     Имя файла C:\РУ€_ик\11 - Vadya Bo - В Ялту ту-ту  (remix).wav     Пиковый уровень 100.0 %     Скорость извлечения 3.7 X     Качество трека 100.0 %     CRC теста 18389C13     CRC копии 18389C13     Точное извлечение (достоверность 1)  [8132A9F2]  (AR v2)     Копирование... OKТрек 12     Имя файла C:\РУ€_ик\12 - Калинки & Малинки - Калинка Малинка.wav     Пиковый уровень 100.0 %     Скорость извлечения 3.7 X     Качество трека 100.0 %     CRC теста 3828A628     CRC копии 3828A628     Точное извлечение (достоверность 1)  [DA9E48A6]  (AR v2)     Копирование... OKТрек 13     Имя файла C:\РУ€_ик\13 - Каникулы - Бритни с пирса.wav     Пиковый уровень 100.0 %     Скорость извлечения 3.9 X     Качество трека 100.0 %     CRC теста 127C220A     CRC копии 127C220A     Точное извлечение (достоверность 1)  [140C6A7E]  (AR v2)     Копирование... OKТрек 14     Имя файла C:\РУ€_ик\14 - Владимир Мун - Эммануэль.wav     Пиковый уровень 100.0 %     Скорость извлечения 4.1 X     Качество трека 100.0 %     CRC теста 44B5DA13     CRC копии 44B5DA13     Точное извлечение (достоверность 1)  [EE1289ED]  (AR v2)     Копирование... OKТрек 15     Имя файла C:\РУ€_ик\15 - Аркадий Грек - Слёзы.wav     Пиковый уровень 100.0 %     Скорость извлечения 4.1 X     Качество трека 100.0 %     CRC теста 29C12463     CRC копии 29C12463     Точное извлечение (достоверность 1)  [D8B5F977]  (AR v2)     Копирование... OKТрек 16     Имя файла C:\РУ€_ик\16 - Vadya Bo - Мандаты  (House Worx  in the mix).wav     Пиковый уровень 100.0 %     Скорость извлечения 4.0 X     Качество трека 100.0 %     CRC теста C90902CC     CRC копии C90902CC     Точное извлечение (достоверность 1)  [532E36F4]  (AR v2)     Копирование... OKТрек 17     Имя файла C:\РУ€_ик\17 - Артём орлов - Буква RRRRR....wav     Пиковый уровень 100.0 %     Скорость извлечения 4.3 X     Качество трека 100.0 %     CRC теста B8D49409     CRC копии B8D49409     Точное извлечение (достоверность 1)  [C8A820C6]  (AR v2)     Копирование... OKТрек 18     Имя файла C:\РУ€_ик\18 - Artush - Дари - подари.wav     Пиковый уровень 100.0 %     Скорость извлечения 4.4 X     Качество трека 100.0 %     CRC теста 9AF1A7FB     CRC копии 9AF1A7FB     Точное извлечение (достоверность 1)  [CB4768E0]  (AR v2)     Копирование... OKТрек 19     Имя файла C:\РУ€_ик\19 - Николай Бурлак & Анне Вески - Половинка.wav     Пиковый уровень 100.0 %     Скорость извлечения 4.5 X     Качество трека 100.0 %     CRC теста 54D9D248     CRC копии 54D9D248     Точное извлечение (достоверность 1)  [9547C786]  (AR v2)     Копирование... OKТрек 20     Имя файла C:\РУ€_ик\20 - Дикий мёд - Я не люблю тебя.wav     Пиковый уровень 100.0 %     Скорость извлечения 4.7 X     Качество трека 100.0 %     CRC теста 331223E5     CRC копии 331223E5     Точное извлечение (достоверность 1)  [C17F55A8]  (AR v2)     Копирование... OKТрек 21     Имя файла C:\РУ€_ик\21 - Vadya Bo - Maria wanna be so high.wav     Пиковый уровень 100.0 %     Скорость извлечения 4.9 X     Качество трека 100.0 %     CRC теста 446F9E9F     CRC копии 446F9E9F     Точное извлечение (достоверность 1)  [47C29F06]  (AR v2)     Копирование... OKТрек 22     Имя файла C:\РУ€_ик\22 - Татьяна Чубарова - Ой, мороз, мороз !.wav     Пиковый уровень 100.0 %     Скорость извлечения 4.8 X     Качество трека 100.0 %     CRC теста FD05E187     CRC копии FD05E187     Точное извлечение (достоверность 1)  [9791EDC8]  (AR v2)     Копирование... OKВсе треки извлечены точноОшибок не произошлоКонец отчёта---- CUETools DB Plugin V2.1.6[CTDB TOCID: PGkj8lgwqp2sn9i.ScKhvdMoC2k-] foundSubmit result: already submittedTrack | CTDB Status  1   | (1/1) Accurately ripped  2   | (1/1) Accurately ripped  3   | (1/1) Accurately ripped  4   | (1/1) Accurately ripped  5   | (1/1) Accurately ripped  6   | (1/1) Accurately ripped  7   | (1/1) Accurately ripped  8   | (1/1) Accurately ripped  9   | (1/1) Accurately ripped 10   | (1/1) Accurately ripped 11   | (1/1) Accurately ripped 12   | (1/1) Accurately ripped 13   | (1/1) Accurately ripped 14   | (1/1) Accurately ripped 15   | (1/1) Accurately ripped 16   | (1/1) Accurately ripped 17   | (1/1) Accurately ripped 18   | (1/1) Accurately ripped 19   | (1/1) Accurately ripped 20   | (1/1) Accurately ripped 21   | (1/1) Accurately ripped 22   | (1/1) Accurately ripped==== Контрольная сумма отчёта 5D24CA6C28FCB236B7D72E6AEBA06C0B3223BF2B63A820FC07D1016CF3DCA68E ====

CUE

REM GENRE PopREM DATE 2007REM DISCID 6012B916PERFORMER "Various"TITLE "80 минут в машине"REM COMPOSER ""FILE "01 - Vadya Bo - У колледжа ждал.wav" WAVE  TRACK 01 AUDIO    TITLE "У колледжа ждал"    PERFORMER "Vadya Bo"    REM COMPOSER ""    INDEX 01 00:00:00FILE "02 - Artush - Bangladesh.wav" WAVE  TRACK 02 AUDIO    TITLE "Bangladesh"    PERFORMER "Artush"    REM COMPOSER ""    INDEX 01 00:00:00FILE "03 - Каникулы - Здрасте, Настя !.wav" WAVE  TRACK 03 AUDIO    TITLE "Здрасте, Настя !"    PERFORMER "Каникулы"    REM COMPOSER ""    INDEX 01 00:00:00FILE "04 - Калинки & Малинки - Цыгель-цыгель - ай-лю-лю !.wav" WAVE  TRACK 04 AUDIO    TITLE "Цыгель-цыгель - ай-лю-лю !"    PERFORMER "Калинки & Малинки"    REM COMPOSER ""    INDEX 01 00:00:00FILE "05 - Аркадий Грек - Маленькая девочка.wav" WAVE  TRACK 05 AUDIO    TITLE "Маленькая девочка"    PERFORMER "Аркадий Грек"    REM COMPOSER ""    INDEX 01 00:00:00FILE "06 - Vadya Bo - Ave Maria.wav" WAVE  TRACK 06 AUDIO    TITLE "Ave Maria"    PERFORMER "Vadya Bo"    REM COMPOSER ""    INDEX 01 00:00:00FILE "07 - Artush - Я люблю тебя.wav" WAVE  TRACK 07 AUDIO    TITLE "Я люблю тебя"    PERFORMER "Artush"    REM COMPOSER ""    INDEX 01 00:00:00FILE "08 - Мама Ева - Улетают птицы.wav" WAVE  TRACK 08 AUDIO    TITLE "Улетают птицы"    PERFORMER "Мама Ева"    REM COMPOSER ""    INDEX 01 00:00:00FILE "09 - Горячие Головы - Самая лучшая.wav" WAVE  TRACK 09 AUDIO    TITLE "Самая лучшая"    PERFORMER "Горячие Головы"    REM COMPOSER ""    INDEX 01 00:00:00FILE "10 - Аркадий Грек - Зелёные глаза.wav" WAVE  TRACK 10 AUDIO    TITLE "Зелёные глаза"    PERFORMER "Аркадий Грек"    REM COMPOSER ""    INDEX 01 00:00:00FILE "11 - Vadya Bo - В Ялту ту-ту  (remix).wav" WAVE  TRACK 11 AUDIO    TITLE "В Ялту ту-ту  (remix)"    PERFORMER "Vadya Bo"    REM COMPOSER ""    INDEX 01 00:00:00FILE "12 - Калинки & Малинки - Калинка Малинка.wav" WAVE  TRACK 12 AUDIO    TITLE "Калинка Малинка"    PERFORMER "Калинки & Малинки"    REM COMPOSER ""    INDEX 01 00:00:00FILE "13 - Каникулы - Бритни с пирса.wav" WAVE  TRACK 13 AUDIO    TITLE "Бритни с пирса"    PERFORMER "Каникулы"    REM COMPOSER ""    INDEX 01 00:00:00FILE "14 - Владимир Мун - Эммануэль.wav" WAVE  TRACK 14 AUDIO    TITLE "Эммануэль"    PERFORMER "Владимир Мун"    REM COMPOSER ""    INDEX 01 00:00:00FILE "15 - Аркадий Грек - Слёзы.wav" WAVE  TRACK 15 AUDIO    TITLE "Слёзы"    PERFORMER "Аркадий Грек"    REM COMPOSER ""    INDEX 01 00:00:00FILE "16 - Vadya Bo - Мандаты  (House Worx  in the mix).wav" WAVE  TRACK 16 AUDIO    TITLE "Мандаты  (House Worx  in the mix)"    PERFORMER "Vadya Bo"    REM COMPOSER ""    INDEX 01 00:00:00FILE "17 - Артём орлов - Буква RRRRR....wav" WAVE  TRACK 17 AUDIO    TITLE "Буква RRRRR..."    PERFORMER "Артём орлов"    REM COMPOSER ""    INDEX 01 00:00:00FILE "18 - Artush - Дари - подари.wav" WAVE  TRACK 18 AUDIO    TITLE "Дари - подари"    PERFORMER "Artush"    REM COMPOSER ""    INDEX 01 00:00:00FILE "19 - Николай Бурлак & Анне Вески - Половинка.wav" WAVE  TRACK 19 AUDIO    TITLE "Половинка"    PERFORMER "Николай Бурлак & Анне Вески"    REM COMPOSER ""    INDEX 01 00:00:00FILE "20 - Дикий мёд - Я не люблю тебя.wav" WAVE  TRACK 20 AUDIO    TITLE "Я не люблю тебя"    PERFORMER "Дикий мёд"    REM COMPOSER ""    INDEX 01 00:00:00FILE "21 - Vadya Bo - Maria wanna be so high.wav" WAVE  TRACK 21 AUDIO    TITLE "Maria wanna be so high"    PERFORMER "Vadya Bo"    REM COMPOSER ""    INDEX 01 00:00:00FILE "22 - Татьяна Чубарова - Ой, мороз, мороз !.wav" WAVE  TRACK 22 AUDIO    TITLE "Ой, мороз, мороз !"    PERFORMER "Татьяна Чубарова"    REM COMPOSER ""    INDEX 01 00:00:00

ЛПК

CUE Corrector v. 8.2.4 / b. 742 (Feb. 16, 2017)————————————————————————————————————————————————————————————————————————Various / 80 минут в машинеFolder: VA - 2007 - 80 минут в машинеAudio files:    01 - Vadya Bo - У колледжа ждал.ape [03:24.720; APE • 966 kbps • 16 bit \ 44100 Hz • stereo; 23,60 MB (24 743 887 B)]    02 - Artush - Bangladesh.ape [03:11.107; APE • 1057 kbps • 16 bit \ 44100 Hz • stereo; 24,09 MB (25 264 995 B)]    03 - Каникулы - Здрасте, Настя !.ape [03:21.213; APE • 918 kbps • 16 bit \ 44100 Hz • stereo; 22,04 MB (23 107 091 B)]    04 - Калинки & Малинки - Цыгель-цыгель - ай-лю-лю !.ape [03:09.947; APE • 986 kbps • 16 bit \ 44100 Hz • stereo; 22,34 MB (23 428 522 B)]    05 - Аркадий Грек - Маленькая девочка.ape [03:48.960; APE • 938 kbps • 16 bit \ 44100 Hz • stereo; 25,61 MB (26 850 547 B)]    06 - Vadya Bo - Ave Maria.ape [03:25.627; APE • 1050 kbps • 16 bit \ 44100 Hz • stereo; 25,74 MB (26 994 588 B)]    07 - Artush - Я люблю тебя.ape [04:16.293; APE • 825 kbps • 16 bit \ 44100 Hz • stereo; 25,21 MB (26 432 567 B)]    08 - Мама Ева - Улетают птицы.ape [03:37.480; APE • 863 kbps • 16 bit \ 44100 Hz • stereo; 22,38 MB (23 467 703 B)]    09 - Горячие Головы - Самая лучшая.ape [03:43.080; APE • 998 kbps • 16 bit \ 44100 Hz • stereo; 26,56 MB (27 851 173 B)]    10 - Аркадий Грек - Зелёные глаза.ape [04:27.813; APE • 945 kbps • 16 bit \ 44100 Hz • stereo; 30,18 MB (31 644 171 B)]    11 - Vadya Bo - В Ялту ту-ту  (remix).ape [03:04.853; APE • 841 kbps • 16 bit \ 44100 Hz • stereo; 18,54 MB (19 442 525 B)]    12 - Калинки & Малинки - Калинка Малинка.ape [02:42.440; APE • 899 kbps • 16 bit \ 44100 Hz • stereo; 17,42 MB (18 261 831 B)]    13 - Каникулы - Бритни с пирса.ape [03:18.773; APE • 1064 kbps • 16 bit \ 44100 Hz • stereo; 25,23 MB (26 453 341 B)]    14 - Владимир Мун - Эммануэль.ape [04:04.627; APE • 881 kbps • 16 bit \ 44100 Hz • stereo; 25,71 MB (26 959 844 B)]    15 - Аркадий Грек - Слёзы.ape [03:02.333; APE • 903 kbps • 16 bit \ 44100 Hz • stereo; 19,63 MB (20 583 576 B)]    16 - Vadya Bo - Мандаты  (House Worx  in the mix).ape [04:34.280; APE • 885 kbps • 16 bit \ 44100 Hz • stereo; 28,97 MB (30 372 235 B)]    17 - Артём орлов - Буква RRRRR....ape [03:31.680; APE • 913 kbps • 16 bit \ 44100 Hz • stereo; 23,04 MB (24 159 343 B)]    18 - Artush - Дари - подари.ape [03:26.387; APE • 993 kbps • 16 bit \ 44100 Hz • stereo; 24,44 MB (25 622 796 B)]    19 - Николай Бурлак & Анне Вески - Половинка.ape [03:32.027; APE • 1017 kbps • 16 bit \ 44100 Hz • stereo; 25,71 MB (26 955 526 B)]    20 - Дикий мёд - Я не люблю тебя.ape [04:36.133; APE • 924 kbps • 16 bit \ 44100 Hz • stereo; 30,42 MB (31 898 827 B)]    21 - Vadya Bo - Maria wanna be so high.ape [04:10.400; APE • 974 kbps • 16 bit \ 44100 Hz • stereo; 29,08 MB (30 491 421 B)]    22 - Татьяна Чубарова - Ой, мороз, мороз !.ape [03:23.320; APE • 1025 kbps • 16 bit \ 44100 Hz • stereo; 24,85 MB (26 052 640 B)]Accuracy: -m8File 01 - Vadya Bo - У колледжа ждал                     - 100% CDDAFile 02 - Artush - Bangladesh                            - 100% CDDAFile 03 - Каникулы - Здрасте, Настя !                    - 100% CDDAFile 04 - Калинки & Малинки - Цыгель-цыгель - ай-лю-лю ! - 100% CDDAFile 05 - Аркадий Грек - Маленькая девочка               - 100% CDDAFile 06 - Vadya Bo - Ave Maria                           - 100% CDDAFile 07 - Artush - Я люблю тебя                          - 100% CDDAFile 08 - Мама Ева - Улетают птицы                       - 100% CDDAFile 09 - Горячие Головы - Самая лучшая                  - 100% CDDAFile 10 - Аркадий Грек - Зелёные глаза                   -  99% CDDAFile 11 - Vadya Bo - В Ялту ту-ту  (remix)               - 100% CDDAFile 12 - Калинки & Малинки - Калинка Малинка            - 100% CDDAFile 13 - Каникулы - Бритни с пирса                      - 100% CDDAFile 14 - Владимир Мун - Эммануэль                       - 100% CDDAFile 15 - Аркадий Грек - Слёзы                           - 100% CDDAFile 16 - Vadya Bo - Мандаты  (House Worx  in the mix)   - 100% CDDAFile 17 - Артём орлов - Буква RRRRR...                   - 100% CDDAFile 18 - Artush - Дари - подари                         - 100% CDDAFile 19 - Николай Бурлак & Анне Вески - Половинка        - 100% CDDAFile 20 - Дикий мёд - Я не люблю тебя                    -  87% CDDAFile 21 - Vadya Bo - Maria wanna be so high              - 100% CDDAFile 22 - Татьяна Чубарова - Ой, мороз, мороз !          - 100% CDDA————— Summary: —————These tracks looks like CDDA with probability 100%.————————————————————————————————————————————————————————————————————————ANALYZER:    auCDtect: CD records authenticity detector, version 0.8.2    Copyright (c) 2004 Oleg Berngardt. All rights reserved.    Copyright (c) 2004 Alexander Djourik. All rights reserved.Time elapsed: 1 m 16 sLog created at May 16, 2018 14:17:45=== C9DFA5B00388FBEDC9F16B343189E4BF608D12B56D21337987A72336C0923373 ===

Для скачки контента: [Установить программу-клиент] и кликнуть по - Скачать

[asmlocator.ru].t532702.torrent 
Торрент: Зарегистрирован [ 2018-05-16 15:20 ] · C6F18DC9B30BD229B7770CEF968176F7D6FEBED6

Скачать .torrent

Скачать

13 KB

Статус: проверено
Скачан: 0 раз
Размер: 547 MB
terms.php
[Профиль] [ЛС]
Показать сообщения:    
Ответить на тему

Текущее время: 28-Май 09:42

Часовой пояс: UTC ± 0



Вы не можете начинать темы
Вы не можете отвечать на сообщения
Вы не можете редактировать свои сообщения
Вы не можете удалять свои сообщения
Вы не можете голосовать в опросах
Вы не можете прикреплять файлы к сообщениям
Вы можете скачивать файлы