(Classical sacred choral) Lully - Te Deum; Dies Irae (Jennifer Smith, Louis Devos, Vocal Ensemble "A Coeur Joie" of Valence Orchestra, Jean-Francios Paillard) - 1977?, FLAC (image+.cue) lossless :: Официальный сайт PrivalSystems и Asmlocator

(Classical sacred choral) Lully - Te Deum; Dies Irae (Jennifer Smith, Louis Devos, Vocal Ensemble "A Coeur Joie" of Valence Orchestra, Jean-Francios Paillard) - 1977?, FLAC (image+.cue) lossless

Ответить на тему
Статистика раздачи
Размер:  295 MB   |    Зарегистрирован:  3 месяца 3 дня   |    Скачан:  0 раз

Полного источника не было: Никогда

 
   
 
 
Автор Сообщение

star21 ®

Пол: Женский

Стаж: 2 года 9 месяцев

Сообщений: 532039

Откуда: Екатеринбург

Создавать темы 16-Май-2018 15:20

[Цитировать]

Lully - Te Deum; Dies Irae Жанр: Classical sacred choral
Страна-производитель диска: Made in France
Год издания диска: 1977?
Издатель (лейбл): Erato
Номер по каталогу: ECD 88122
Дата записи: 1975
Аудиокодек: FLAC
Тип рипа: image+.cue
Битрейт аудио: lossless
Продолжительность: 62:27
Источник: релизер
сайт-источник/ник/другое: Bodtje, подарок; Caterina Sforza - работа с cue, доп. сканы
Наличие сканов в содержимом раздачи: даТреклист:TE DEUM
01. Symphonie - Te Deum
02. Patrem Immensae Majestatis
03. Symphonie - Te Ergo Quaesumus
04. Symphonie - Dignare Domine05. DIES IRAE

Исполнители

Jean-Baptiste Lully (1632-1687)Te Deum; Dies IraeJennifer Smith - sopranoFrancine Bessac - 2nd sopranoZeger Vandersteene - counter-tenotLouis Devos - tenorPhilippe Huttenlocher - bassVocal Ensemble "A Coeur Joie" of Valence OrchestraJean-Francios Paillard, conductorRecording: March 1975, Chapelle du Lycée de Tournon

Лог создания рипа

Exact Audio Copy V1.3 from 2. September 2016EAC extraction logfile from 12. May 2018, 17:05J.-B. Lully / Te Deum, Dies IraeUsed drive  : TSSTcorpDVDWBD SE-406AB   Adapter: 1  ID: 2Read mode               : SecureUtilize accurate stream : YesDefeat audio cache      : YesMake use of C2 pointers : NoRead offset correction                      : 6Overread into Lead-In and Lead-Out          : NoFill up missing offset samples with silence : YesDelete leading and trailing silent blocks   : NoNull samples used in CRC calculations       : YesUsed interface                              : Native Win32 interface for Win NT & 2000Used output format              : User Defined EncoderSelected bitrate                : 1024 kBit/sQuality                         : HighAdd ID3 tag                     : NoCommand line compressor         : C:\Program Files (x86)\Exact Audio Copy\FLAC\FLAC.EXEAdditional command line options : -8 -e -p -V -T "ARTIST=%artist%" -T "TITLE=%title%" -T "ALBUM=%albumtitle%" -T "DATE=%year%" -T "TRACKNUMBER=%tracknr%" -T "GENRE=%genre%" -T "PERFORMER=%albuminterpret%" -T "COMPOSER=%composer%" %haslyrics%--tag-from-file=LYRICS="%lyricsfile%"%haslyrics% -T "ALBUMARTIST=%albumartist%" -T "DISCNUMBER=%cdnumber%" -T "TOTALDISCS=%totalcds%" -T "TOTALTRACKS=%numtracks%" -T "COMMENT=%comment%" %source% -o %dest%TOC of the extracted CD     Track |   Start  |  Length  | Start sector | End sector    ---------------------------------------------------------        1  |  0:00.33 | 10:36.32 |        33    |    47764        2  | 10:36.65 |  9:12.55 |     47765    |    89219        3  | 19:49.45 | 10:43.60 |     89220    |   137504        4  | 30:33.30 |  9:31.60 |    137505    |   180389        5  | 40:05.15 | 22:23.15 |    180390    |   281129Range status and errorsSelected range     Filename K:\Rips\Lully - Te Deum, Dies Irae - Paillard\Lully - Te Deum, Dies Irae - Paillard.wav     Peak level 74.4 %     Extraction speed 2.1 X     Range quality 100.0 %     Test CRC 9C7BA524     Copy CRC 9C7BA524     Copy OKNo errors occurredAccurateRip summaryTrack  1  accurately ripped (confidence 5)  [08B578CD]  (AR v2)Track  2  accurately ripped (confidence 5)  [91B27874]  (AR v2)Track  3  accurately ripped (confidence 5)  [44EFD022]  (AR v2)Track  4  accurately ripped (confidence 5)  [42B06C9B]  (AR v2)Track  5  accurately ripped (confidence 5)  [93221732]  (AR v2)All tracks accurately rippedEnd of status report---- CUETools DB Plugin V2.1.6[CTDB TOCID: 8CiAp2fZ3sqOo0JjZ77gN.y6wpQ-] foundSubmit result: 8CiAp2fZ3sqOo0JjZ77gN.y6wpQ- has been confirmedTrack | CTDB Status  1   | (1/1) Accurately ripped  2   | (1/1) Accurately ripped  3   | (1/1) Accurately ripped  4   | (1/1) Accurately ripped  5   | (1/1) Accurately ripped==== Log checksum 30AF8330D8A055C84A546FCB28C04413DA62C0F2E8F90FE23F37EEECCC2A420F ====

Содержание индексной карты (.CUE)

REM GENRE ClassicalREM DISCID 3D0EA405REM COMMENT "ExactAudioCopy v1.3"PERFORMER "Ensemble Vocal “A cœur joie” de Valence, Georges de Kermel (conductor) / Orchestre de Chambre Jean-François Paillard, Jean-François Paillard (conductor) / Jennifer Smith (soprano), Francine Bessac (soprano), Zeger Vandersteene (countertenor), Louis Devos (tenor), Philippe Huttenlocher (bass)"TITLE "Lully: Te Deum, Dies Irae"REM COMPOSER "Jean-Baptiste Lully (1632-1687)"FILE "Lully - Te Deum, Dies Irae - Paillard.flac" WAVE  TRACK 01 AUDIO    TITLE "TE DEUM. Symphonie - Te Deum"    PERFORMER "Ensemble Vocal “A cœur joie” de Valence, Georges de Kermel / Orchestre de Chambre Jean-François Paillard, Jean-François Paillard / Jennifer Smith, Francine Bessac, Zeger Vandersteene, Louis Devos, Philippe Huttenlocher"    REM COMPOSER "Jean-Baptiste Lully"    INDEX 00 00:00:00    INDEX 01 00:00:33  TRACK 02 AUDIO    TITLE "TE DEUM.Patrem Immensae Majestatis"    PERFORMER "Ensemble Vocal “A cœur joie” de Valence, Georges de Kermel / Orchestre de Chambre Jean-François Paillard, Jean-François Paillard / Jennifer Smith, Francine Bessac, Zeger Vandersteene, Louis Devos, Philippe Huttenlocher"    REM COMPOSER "Jean-Baptiste Lully"    INDEX 00 10:35:65    INDEX 01 10:36:65  TRACK 03 AUDIO    TITLE "TE DEUM. Symphonie - Te Ergo Quaesumus"    PERFORMER "Ensemble Vocal “A cœur joie” de Valence, Georges de Kermel / Orchestre de Chambre Jean-François Paillard, Jean-François Paillard / Jennifer Smith, Francine Bessac, Zeger Vandersteene, Louis Devos, Philippe Huttenlocher"    REM COMPOSER "Jean-Baptiste Lully"    INDEX 00 19:48:63    INDEX 01 19:49:45  TRACK 04 AUDIO    TITLE "TE DEUM. Symphonie - Dignare Domine"    PERFORMER "Ensemble Vocal “A cœur joie” de Valence, Georges de Kermel / Orchestre de Chambre Jean-François Paillard, Jean-François Paillard / Jennifer Smith, Francine Bessac, Zeger Vandersteene, Louis Devos, Philippe Huttenlocher"    REM COMPOSER "Jean-Baptiste Lully"    INDEX 00 30:32:15    INDEX 01 30:33:30  TRACK 05 AUDIO    TITLE "DIES IRAE"    PERFORMER "Ensemble Vocal “A cœur joie” de Valence, Georges de Kermel / Orchestre de Chambre Jean-François Paillard, Jean-François Paillard / Jennifer Smith, Francine Bessac, Zeger Vandersteene, Louis Devos, Philippe Huttenlocher"    REM COMPOSER "Jean-Baptiste Lully"    INDEX 00 39:58:05    INDEX 01 40:05:15

Для скачки контента: [Установить программу-клиент] и кликнуть по - СкачатьБезопасность: клиент проверен АВ Касперского

[asmlocator.ru].t532699.torrent 
Торрент: Зарегистрирован [ 2018-05-16 15:20 ] · 20CD3BD32127837B12AD2382276EC214226C5124

Скачать .torrent

Скачать

13 KB

Статус: проверено
Скачан: 0 раз
Размер: 295 MB
terms.php
[Профиль] [ЛС]
Показать сообщения:    
Ответить на тему

Текущее время: 20-Авг 12:30

Часовой пояс: UTC ± 0



Вы не можете начинать темы
Вы не можете отвечать на сообщения
Вы не можете редактировать свои сообщения
Вы не можете удалять свои сообщения
Вы не можете голосовать в опросах
Вы не можете прикреплять файлы к сообщениям
Вы можете скачивать файлы