[VIDEO] Старый знакомый (Игорь Ильинский, Аркадий Кольцатый) [1969, комедия, DVDRip] [MP4, 640x] [Мастер Тейп]

Ответить на тему
Статистика раздачи
Размер:  706 MB   |    Зарегистрирован:  5 месяцев 1 день   |    Скачан:  0 раз

Полного источника не было: Никогда

 
   
 
 
Автор Сообщение

star21 ®

Пол: Женский

Стаж: 2 года 11 месяцев

Сообщений: 552946

Откуда: Екатеринбург

Создавать темы 16-Май-2018 15:20

[Цитировать]

Старый знакомый Год выпуска: 1969
Страна: СССР
Жанр: комедия
Продолжительность: 01:21:27
Перевод: не требуется
Субтитры: нетРежиссеры: Игорь Ильинский, Аркадий КольцатыйВ ролях: Игорь Ильинский, Николай Рыбников, Феликс Яворский, Сергей Филиппов, Анатолий Веденкин, Геннадий Ялович, Владимир Ферапонтов, Владимир Этуш, Мария Миронова и другие .Описание: Продолжение популярной комедии Эльдара Рязанова "Карнавальная ночь" (1956) .Теперь Серафим Огурцов, окончив курсы повышения квалификации, занят работой по разбивке городского парка. Его намерениям разместить в парке пивные и шашлычные на месте зеленых массивов успешно сопротивляется молодежь во главе с ученым Анохиным... Релиз группы Качество: DVDRip / рип с DVD5 Крупный план (Мастер Тейп)
Формат: MP4
Видео кодек: H.264
Аудио кодек: AAC
Видео: 640x284 AR:2.25 1080 kbps 25 fps
Аудио: 2ch 48 kHz 128 kbps

Logx264

avs [info]: 640x284p 1:1 @ 25/1 fps (cfr)
x264 [info]: using SAR=1/1
x264 [info]: using cpu capabilities: MMX2 SSE2Fast SSSE3 SSE4.2 AVX FMA3 BMI2 AVX2
x264 [info]: profile High, level 4.1
x264 [info]: frame I:691 Avg QP:18.53 size: 31401
x264 [info]: frame P:30926 Avg QP:21.54 size: 11391
x264 [info]: frame B:90558 Avg QP:23.53 size: 3155
x264 [info]: consecutive B-frames: 2.9% 3.1% 12.2% 35.0% 24.0% 21.3% 1.2% 0.2%
x264 [info]: mb I I16..4: 10.4% 66.2% 23.3%
x264 [info]: mb P I16..4: 0.2% 8.8% 1.5% P16..4: 41.1% 28.3% 18.2% 0.9% 0.2% skip: 1.0%
x264 [info]: mb B I16..4: 0.0% 0.5% 0.2% B16..8: 45.4% 11.9% 3.2% direct: 6.7% skip:32.2% L0:34.9% L1:40.6% BI:24.5%
x264 [info]: 8x8 transform intra:80.0% inter:54.2%
x264 [info]: direct mvs spatial:96.9% temporal:3.1%
x264 [info]: coded y,uvDC,uvAC intra: 98.3% 80.9% 47.2% inter: 31.0% 26.1% 4.3%
x264 [info]: i16 v,h,dc,p: 13% 8% 44% 35%
x264 [info]: i8 v,h,dc,ddl,ddr,vr,hd,vl,hu: 14% 8% 10% 8% 12% 13% 10% 12% 12%
x264 [info]: i4 v,h,dc,ddl,ddr,vr,hd,vl,hu: 15% 7% 4% 9% 14% 15% 12% 12% 12%
x264 [info]: i8c dc,h,v,p: 31% 27% 22% 21%
x264 [info]: Weighted P-Frames: Y:45.6% UV:29.9%
x264 [info]: ref P L0: 49.1% 13.1% 13.0% 6.4% 4.6% 4.3% 3.6% 2.3% 2.2% 1.3% 0.1%
x264 [info]: ref B L0: 87.4% 5.9% 2.3% 1.4% 1.1% 1.0% 0.6% 0.4%
x264 [info]: ref B L1: 98.4% 1.6%
x264 [info]: kb/s:1079.94x264 [total]: encoded 122175 frames, 20.41 fps, 1079.95 kb/s

ТХ/MediaInfo

GeneralComplete name               : D:\Torrents\Starui znakomui.1969.DVDRip.x264.640x.rip by Frost O.S.mp4Format                      : MPEG-4Format profile              : 3GPP Media Release 6 BasicCodec ID                    : 3gp6 (isom/3gp6/avc1/mp42)File size                   : 706 MiBDuration                    : 1 h 21 minOverall bit rate mode       : VariableOverall bit rate            : 1 212 kb/sEncoded date                : UTC 2018-05-16 12:37:24Tagged date                 : UTC 2018-05-16 12:37:24Writing application         : Yamb 2.1.0.0VideoID                          : 1Format                      : AVCFormat/Info                 : Advanced Video CodecFormat profile              : High@L4.1Format settings, CABAC      : YesFormat settings, ReFrames   : 9 framesCodec ID                    : avc1Codec ID/Info               : Advanced Video CodingDuration                    : 1 h 21 minBit rate                    : 1 080 kb/sMaximum bit rate            : 4 565 kb/sWidth                       : 640 pixelsHeight                      : 284 pixelsDisplay aspect ratio        : 2.25:1Frame rate mode             : ConstantFrame rate                  : 25.000 FPSColor space                 : YUVChroma subsampling          : 4:2:0Bit depth                   : 8 bitsScan type                   : ProgressiveBits/(Pixel*Frame)          : 0.238Stream size                 : 629 MiB (89%)Writing library             : x264 core 152 r2851 ba24899Encoding settings           : cabac=1 / ref=9 / deblock=1:-2:0 / analyse=0x3:0x133 / me=umh / subme=10 / psy=1 / psy_rd=1.10:0.15 / mixed_ref=1 / me_range=48 / chroma_me=1 / trellis=2 / 8x8dct=1 / cqm=0 / deadzone=21,11 / fast_pskip=0 / chroma_qp_offset=-3 / threads=6 / lookahead_threads=1 / sliced_threads=0 / nr=0 / decimate=0 / interlaced=0 / bluray_compat=0 / constrained_intra=0 / bframes=7 / b_pyramid=2 / b_adapt=2 / b_bias=0 / direct=3 / weightb=1 / open_gop=0 / weightp=2 / keyint=250 / keyint_min=25 / scenecut=40 / intra_refresh=0 / rc=2pass / mbtree=0 / bitrate=1080 / ratetol=1.0 / qcomp=0.70 / qpmin=0 / qpmax=69 / qpstep=4 / cplxblur=20.0 / qblur=0.5 / ip_ratio=1.40 / pb_ratio=1.30 / aq=3:0.90Encoded date                : UTC 2018-05-16 12:21:16Tagged date                 : UTC 2018-05-16 12:37:26Color range                 : LimitedColor primaries             : BT.601 PALTransfer characteristics    : BT.470 System B, BT.470 System GMatrix coefficients         : BT.601AudioID                          : 2Format                      : AACFormat/Info                 : Advanced Audio CodecFormat profile              : LCCodec ID                    : 40Duration                    : 1 h 21 minBit rate mode               : VariableBit rate                    : 128 kb/sMaximum bit rate            : 133 kb/sChannel(s)                  : 2 channelsChannel positions           : Front: L RSampling rate               : 48.0 kHzFrame rate                  : 46.875 FPS (1024 spf)Compression mode            : LossyStream size                 : 74.6 MiB (11%)Encoded date                : UTC 2018-05-16 12:34:52Tagged date                 : UTC 2018-05-16 12:37:26

Скриншоты



Для скачки контента: [Установить программу-клиент] и кликнуть по - СкачатьБезопасность: клиент проверен АВ Касперского

[asmlocator.ru].t532697.torrent 
Торрент: Зарегистрирован [ 2018-05-16 15:20 ] · 701C10CE5A2DAF0B04323C5F3C7B901B703DD440

Скачать .torrent

Скачать

14 KB

Статус: проверено
Скачан: 0 раз
Размер: 706 MB
terms.php
[Профиль] [ЛС]
Показать сообщения:    
Ответить на тему

Текущее время: 18-Окт 12:32

Часовой пояс: UTC ± 0



Вы не можете начинать темы
Вы не можете отвечать на сообщения
Вы не можете редактировать свои сообщения
Вы не можете удалять свои сообщения
Вы не можете голосовать в опросах
Вы не можете прикреплять файлы к сообщениям
Вы можете скачивать файлы