О, Париж! / Oh, Paris! (Александр Шмигун) [2010, Украина, мультфильм, WEBRip]

Ответить на тему
Статистика раздачи
Размер:  49 MB   |    Зарегистрирован:  5 месяцев 1 день   |    Скачан:  0 раз

Полного источника не было: Никогда

 
   
 
 
Автор Сообщение

star21 ®

Пол: Женский

Стаж: 2 года 11 месяцев

Сообщений: 552946

Откуда: Екатеринбург

Создавать темы 16-Май-2018 15:20

[Цитировать]

О, Париж! / Oh, Paris!Страна: Украина
Жанр: мультфильм
Продолжительность: 00:08:32
Год выпуска: 2010
Перевод: не требуется
Русские субтитры: нетРежиссёр: Александр ШмигунОписание: Одна старушка всю жизнь мечтала побывать в столице Франции, собирала статуэтки Эйфелевой башни, хранила открытки с изображением парижских улочек. И наконец у неё в руках есть билет, который доставит её в город мечты...Качество: WEBRip-AVC
Формат: MKV
Видео: 599 kbps, 640х480 (4:3), 25.000 fps, AVC (High@L3.1)
Аудио: 192 kbps, 48.0 kHz, 16 bits, 2 channels, AC-3
Субтитры: отсутствуют

Подробные технические данные

GeneralUnique ID                                : 186815364156255491740353743027441246881 (0x8C8B549470A05906851A1E945D5822A1)Complete name                            : Oh, Paris! (2010).mkvFormat                                   : MatroskaFormat version                           : Version 4 / Version 2File size                                : 49.3 MiBDuration                                 : 8mn 32sOverall bit rate mode                    : VariableOverall bit rate                         : 808 KbpsEncoded date                             : UTC 2018-05-12 11:08:32Writing application                      : mkvmerge v6.6.0 ('The Edge Of The In Between') built on Dec  1 2013 17:55:00Writing library                          : libebml v1.3.0 + libmatroska v1.4.1VideoID                                       : 1Format                                   : AVCFormat/Info                              : Advanced Video CodecFormat profile                           : Main@L3.0Format settings, CABAC                   : YesFormat settings, ReFrames                : 3 framesCodec ID                                 : V_MPEG4/ISO/AVCDuration                                 : 8mn 32sBit rate mode                            : VariableBit rate                                 : 599 KbpsMaximum bit rate                         : 40.0 MbpsWidth                                    : 640 pixelsHeight                                   : 480 pixelsDisplay aspect ratio                     : 4:3Frame rate mode                          : ConstantFrame rate                               : 25.000 fpsColor space                              : YUVChroma subsampling                       : 4:2:0Bit depth                                : 8 bitsScan type                                : ProgressiveBits/(Pixel*Frame)                       : 0.078Stream size                              : 36.6 MiB (74%)Default                                  : YesForced                                   : NoAudioID                                       : 2Format                                   : AC-3Format/Info                              : Audio Coding 3Mode extension                           : CM (complete main)Format settings, Endianness              : BigCodec ID                                 : A_AC3Duration                                 : 8mn 32sBit rate mode                            : ConstantBit rate                                 : 192 KbpsChannel(s)                               : 2 channelsChannel positions                        : Front: L RSampling rate                            : 48.0 KHzBit depth                                : 16 bitsCompression mode                         : LossyStream size                              : 11.7 MiB (24%)Default                                  : YesForced                                   : No

Скриншоты

Для скачки контента: [Установить программу-клиент] и кликнуть по - СкачатьБезопасность: клиент проверен АВ Касперского

[asmlocator.ru].t532692.torrent 
Торрент: Зарегистрирован [ 2018-05-16 15:20 ] · 8444C5DFD49ABBAF8CF8D24BE5BBD553E06E81FB

Скачать .torrent

Скачать

16 KB

Статус: проверено
Скачан: 0 раз
Размер: 49 MB
terms.php
[Профиль] [ЛС]
Показать сообщения:    
Ответить на тему

Текущее время: 17-Окт 19:23

Часовой пояс: UTC ± 0



Вы не можете начинать темы
Вы не можете отвечать на сообщения
Вы не можете редактировать свои сообщения
Вы не можете удалять свои сообщения
Вы не можете голосовать в опросах
Вы не можете прикреплять файлы к сообщениям
Вы можете скачивать файлы