Левая половина холодильника / La moitié gauche du frigo / The Left-Hand Side of the Fridge (Филипп Фалардо / Philippe Falardeau) [2000, Канада, псевдодокументальный, социальная драма, DVDRip] + Sub Rus (porcellus) + Original Fra

Ответить на тему
Статистика раздачи
Размер:  738 MB   |    Зарегистрирован:  5 месяцев 1 день   |    Скачан:  0 раз

Полного источника не было: Никогда

 
   
 
 
Автор Сообщение

star21 ®

Пол: Женский

Стаж: 2 года 11 месяцев

Сообщений: 552946

Откуда: Екатеринбург

Создавать темы 16-Май-2018 15:20

[Цитировать]

Левая половина холодильника / La moitié gauche du frigo / The Left-Hand Side of the Fridge Страна: Канада
Жанр: псевдодокументальный, социальная драма
Год выпуска: 2000
Продолжительность: 01:27:19Перевод: субтитры - porcellus
Субтитры: русские
Оригинальная аудиодорожка: французскаяРежиссер: Филипп Фалардо / Philippe FalardeauВ ролях: Поль Амарани, Стефан Демерс, Женевьева Нерон, Жюль Филип, Александрина Агостини, Мишель Лаперьер, Мари-Андре Корнель, Стефан Крет, Хан Хуа, Сильвен БельмарОписание: Стефан — социальный активист, работающий в театре. Кристоф — 30-летний безработный инженер. Двое друзей, арендующих жильё в складчину, решают снять документальный фильм о поиске работы. Кристоф согласился на то, чтобы его друг снимал на плёнку все его действия до тех пор, пока он не трудоустроится. Это предприятие станет серьёзным испытанием для их дружбы.[imdb]http://www.imdb.com/title/tt0260193[/imdb]Сэмпл: http://multi-up.com/1198431Качество видео: DVDRip
Формат видео: AVIВидео: 608x448 (1.36:1), 29.970 fps, XviD Final 1.0 (build 34) ~977 kbps avg, 0.12 bit/pixel
Аудио: 48 kHz, AC3 Dolby Digital, 2 ch, ~192.00 kbps avg
Формат субтитров: softsub (SRT)

MediaInfo

GeneralComplete name                            : H:\temp\Левая половина холодильника\La Moitie Gauche Du Frigo.aviFormat                                   : AVIFormat/Info                              : Audio Video InterleaveFile size                                : 738 MiBDuration                                 : 1 h 27 minOverall bit rate                         : 1 181 kb/sVideoID                                       : 0Format                                   : MPEG-4 VisualFormat profile                           : Advanced Simple@L5Format settings, BVOP                    : 1Format settings, QPel                    : NoFormat settings, GMC                     : No warppointsFormat settings, Matrix                  : Default (H.263)Codec ID                                 : DX50Codec ID/Hint                            : DivX 5Duration                                 : 1 h 27 minBit rate                                 : 977 kb/sWidth                                    : 608 pixelsHeight                                   : 448 pixelsDisplay aspect ratio                     : 4:3Frame rate                               : 29.970 (30000/1001) FPSColor space                              : YUVChroma subsampling                       : 4:2:0Bit depth                                : 8 bitsScan type                                : ProgressiveCompression mode                         : LossyBits/(Pixel*Frame)                       : 0.120Stream size                              : 610 MiB (83%)Writing library                          : XviD 1.0.0 (UTC 2004-05-09)AudioID                                       : 1Format                                   : AC-3Format/Info                              : Audio Coding 3Mode extension                           : CM (complete main)Format settings, Endianness              : BigCodec ID                                 : 2000Duration                                 : 1 h 27 minBit rate mode                            : ConstantBit rate                                 : 192 kb/sChannel(s)                               : 2 channelsChannel positions                        : Front: L RSampling rate                            : 48.0 kHzFrame rate                               : 31.250 FPS (1536 spf)Bit depth                                : 16 bitsCompression mode                         : LossyStream size                              : 120 MiB (16%)Alignment                                : Aligned on interleavesInterleave, duration                     : 32  ms (0.96 video frame)

Скриншот c названием фильма

Фрагмент субтитров

16
00:01:30,590 --> 00:01:34,321
<i>Жан Кретьен говорит, что правительство
пытается найти людям работу.</i>17
00:01:34,494 --> 00:01:37,088
<i>Пусть даже не слишком продуктивную,</i>18
00:01:37,263 --> 00:01:40,562
<i>но это всяко лучше, чем дома пить пиво.</i>19
00:01:40,563 --> 00:01:41,562
Моя позиция - дать им возможность20
00:01:42,563 --> 00:01:44,562
работать, пускай с половиной продуктивности,21
00:01:44,563 --> 00:01:49,562
чем они будут сидеть дома, и пить пиво с нулевой продуктивностью.22
00:01:53,279 --> 00:01:57,113
Помнишь, ты спросил меня, почему я согласился сниматься в этом фильме?23
00:01:57,183 --> 00:01:59,276
Думаю, я нашел ответ.24
00:01:59,452 --> 00:02:01,647
Я согласился, потому что ты мой сосед,25
00:02:01,821 --> 00:02:05,120
потому что ты поможешь мне оплатить аренду,
плюс это будет весело.26
00:02:05,291 --> 00:02:07,725
Знаешь, фильм закончится...27
00:02:08,695 --> 00:02:10,458
Он закончится моей смертью!28
00:02:12,132 --> 00:02:13,724
И он мог закончиться прямо сейчас.29
00:02:13,900 --> 00:02:15,731
Он закончится на том, что я найду работу, верно?30
00:02:15,902 --> 00:02:18,336
Но мы не знаем, когда это произойдет.31
00:02:18,505 --> 00:02:20,336
Это похоже на триллер.32
00:02:22,342 --> 00:02:23,331
Привет, Бу.33
00:02:24,177 --> 00:02:27,271
Как дела, Кристоф?
Пришел за газетой?34
00:02:29,082 --> 00:02:30,049
- Стефан!
- Приветствую.35
00:02:35,822 --> 00:02:37,915
Одно молоко, газета...36
00:02:38,091 --> 00:02:41,618
Я оставил для тебя газету с прошлой среды.
С разделом поиска работы.

Для скачки контента: [Установить программу-клиент] и кликнуть по - СкачатьБезопасность: клиент проверен АВ Касперского

[asmlocator.ru].t532689.torrent 
Торрент: Зарегистрирован [ 2018-05-16 15:20 ] · AEC2A656B97F4BB819AC926C8782D6821AF6F840

Скачать .torrent

Скачать

15 KB

Статус: проверено
Скачан: 0 раз
Размер: 738 MB
terms.php
[Профиль] [ЛС]
Показать сообщения:    
Ответить на тему

Текущее время: 18-Окт 12:30

Часовой пояс: UTC ± 0



Вы не можете начинать темы
Вы не можете отвечать на сообщения
Вы не можете редактировать свои сообщения
Вы не можете удалять свои сообщения
Вы не можете голосовать в опросах
Вы не можете прикреплять файлы к сообщениям
Вы можете скачивать файлы