(Pop, Europop) [MC] [24/44,1] Алла Пугачёва - В XXI Век с Аллой Пугачёвой - 2001, FLAC (image+.cue) :: Официальный сайт PrivalSystems и Asmlocator

(Pop, Europop) [MC] [24/44,1] Алла Пугачёва - В XXI Век с Аллой Пугачёвой - 2001, FLAC (image+.cue)

Ответить на тему
Статистика раздачи
Размер:  833 MB   |    Зарегистрирован:  3 месяца 3 дня   |    Скачан:  0 раз

Полного источника не было: Никогда

 
   
 
 
Автор Сообщение

star21 ®

Пол: Женский

Стаж: 2 года 9 месяцев

Сообщений: 532039

Откуда: Екатеринбург

Создавать темы 16-Май-2018 12:55

[Цитировать]

Алла Пугачёва - В XXI Век с Аллой Пугачёвой (2001) Жанр: Pop, Europop
Носитель: MC
Год выпуска: 2001
Лейбл: МУ ''Союз'' & Арт-студия ''Алла'' - MC АПБ 0006
Страна-производитель: Russia
Аудио кодек: FLAC
Тип рипа: image+.cue
Формат записи: 24/176,4
Формат раздачи: 24/44,1
Продолжительность: 01:11:52
Тэги в .cue: прописаны
Источник оцифровки: автором раздачи
Код класса состояния винила: VG
Устройство воспроизведения: AKAI GX 95MK2
Головка звукоснимателя: LC-OFC SGX (x2)
Предварительный усилитель: встроенный
АЦП: Juli@
Программа-оцифровщик: Adobe Audition CS6 5.0.2.
Обработка: удаление артефактов, частичная реставрация

Трэклист:


01. Мадам Брошкина (mix disco '80)
02. Настоящий полковник
03. Чао
04. Мал-помалу
05. Всё могут короли
06. Арлекино
07. Я тебя так сильно любила
08. В воду войду
09. Не обещай
10. О любви не говори
11. Осторожно, листопад!
12. Найти меня
13. Грабитель
14. Делу время
15. Надо же
16. Мэри
17. Бессонница
18. Я тебя поцеловала
19. Девочка секонд-хэнд

Dynamic Range Meter (DR12):

foobar2000 1.1.3 / Dynamic Range Meter 1.1.1log date: 2018-05-16 13:39:56--------------------------------------------------------------------------------Analyzed: Алла Пугачёва / В XXI Век с Аллой Пугачёвой--------------------------------------------------------------------------------DR         Peak         RMS     Duration Track--------------------------------------------------------------------------------DR12      -1.64 dB   -14.71 dB      4:23 ?-01. Мадам Брошкина (mix disco '80)DR12      -1.16 dB   -14.65 dB      4:55 ?-02. Настоящий полковникDR14      -1.22 dB   -16.40 dB      3:14 ?-03. ЧаоDR11      -1.60 dB   -15.96 dB      3:00 ?-04. Мал-помалуDR11      -0.38 dB   -14.21 dB      3:04 ?-05. Всё могут королиDR11      -0.97 dB   -13.94 dB      4:31 ?-06. АрлекиноDR12      -1.51 dB   -15.81 dB      3:45 ?-07. Я тебя так сильно любилаDR10      -0.05 dB   -12.21 dB      3:31 ?-08. В воду войдуDR12      -2.05 dB   -15.40 dB      2:57 ?-09. Не обещайDR12      -0.08 dB   -14.61 dB      2:20 ?-10. О любви не говориDR11      -0.05 dB   -13.44 dB      5:25 ?-11. Осторожно, листопад!DR14      -0.25 dB   -15.49 dB      4:26 ?-12. Найти меняDR11      -0.05 dB   -13.54 dB      3:11 ?-13. ГрабительDR13      -0.23 dB   -15.45 dB      3:26 ?-14. Делу времяDR14      -0.40 dB   -15.40 dB      3:52 ?-15. Надо жеDR12      -0.28 dB   -15.28 dB      4:33 ?-16. МэриDR11      -0.27 dB   -13.71 dB      4:00 ?-17. БессонницаDR13      -0.16 dB   -14.57 dB      2:51 ?-18. Я тебя поцеловалаDR12      -0.05 dB   -14.00 dB      4:31 ?-19. Девочка секонд-хэнд--------------------------------------------------------------------------------Number of tracks:  19Official DR value: DR12Samplerate:        44100 HzChannels:          2Bits per sample:   24Bitrate:           1626 kbpsCodec:             FLAC================================================================================

Обложка:

Уровень записи, спектр, АЧХ:

.cue txt:

REM GENRE "Pop, Europop"REM DATE "2001"REM COMMENT "Cassette, Compilation, МУ ''Союз'' & Арт-студия ''Алла'' - MC АПБ 0006, Russia"PERFORMER "Алла Пугачёва"TITLE "В XXI Век с Аллой Пугачёвой"FILE "01. Сторона А.flac" WAVE  TRACK 01 AUDIO    TITLE "01. Мадам Брошкина (mix disco '80)"    INDEX 01 00:00:00  TRACK 02 AUDIO    TITLE "02. Настоящий полковник"    INDEX 01 04:22:52  TRACK 03 AUDIO    TITLE "03. Чао"    INDEX 01 09:17:69  TRACK 04 AUDIO    TITLE "04. Мал-помалу"    INDEX 01 12:31:44  TRACK 05 AUDIO    TITLE "05. Всё могут короли"    INDEX 01 15:31:55  TRACK 06 AUDIO    TITLE "06. Арлекино"    INDEX 01 18:35:37  TRACK 07 AUDIO    TITLE "07. Я тебя так сильно любила"    INDEX 01 23:06:04  TRACK 08 AUDIO    TITLE "08. В воду войду"    INDEX 01 26:51:16  TRACK 09 AUDIO    TITLE "09. Не обещай"    INDEX 01 30:22:04FILE "02. Сторона В.flac" WAVE  TRACK 10 AUDIO    TITLE "10. О любви не говори"    INDEX 01 00:00:00  TRACK 11 AUDIO    TITLE "11. Осторожно, листопад!"    INDEX 01 02:19:55  TRACK 12 AUDIO    TITLE "12. Найти меня"    INDEX 01 07:44:24  TRACK 13 AUDIO    TITLE "13. Грабитель"    INDEX 01 12:09:72  TRACK 14 AUDIO    TITLE "14. Делу время"    INDEX 01 15:20:47  TRACK 15 AUDIO    TITLE "15. Надо же"    INDEX 01 18:46:29  TRACK 16 AUDIO    TITLE "16. Мэри"    INDEX 01 22:38:53  TRACK 17 AUDIO    TITLE "17. Бессонница"    INDEX 01 27:11:53  TRACK 18 AUDIO    TITLE "18. Я тебя поцеловала"    INDEX 01 31:11:70  TRACK 19 AUDIO    TITLE "19. Девочка секонд-хэнд"    INDEX 01 34:02:53

Для скачки контента: [Установить программу-клиент] и кликнуть по - СкачатьБезопасность: клиент проверен АВ Касперского

[asmlocator.ru].t532680.torrent 
Торрент: Зарегистрирован [ 2018-05-16 12:55 ] · F0CAC2639838DE37890DED02CB80742CF43CB69A

Скачать .torrent

Скачать

33 KB

Статус: проверено
Скачан: 0 раз
Размер: 833 MB
terms.php
[Профиль] [ЛС]
Показать сообщения:    
Ответить на тему

Текущее время: 20-Авг 12:30

Часовой пояс: UTC ± 0



Вы не можете начинать темы
Вы не можете отвечать на сообщения
Вы не можете редактировать свои сообщения
Вы не можете удалять свои сообщения
Вы не можете голосовать в опросах
Вы не можете прикреплять файлы к сообщениям
Вы можете скачивать файлы